1917 (2019) BDRip-HEVC 1080p - KORSAR

Torrent Details


1917 (2019) BDRip-HEVC 1080p - KORSAR

NAME
1917 (2019) BDRip-HEVC 1080p - KORSAR.torrent
CATEGORY
Movies
INFOHASH
ef13416bf23e9eb4e0425690fd2c6cd8ebac793d
SIZE
8.7 GB in 1 file
ADDED
Uploaded on 22-05-2020 by our crawler pet called "Spidey".
SWARM
0 seeders & 0 peers
RATING
No votes yet.

Please login to vote for this torrent.


Description

Информация о фильме

Название: 1917

Оригинальное название: 1917

Год выхода: 2019

Жанр: Военный, боевик, история, драма

Режиссер: Сэм Мендес

В ролях: Джордж МакКэй, Дин-Чарльз Чепмен, Марк Стронг, Эндрю Скотт, Ричард Мэдден, Клэр Дюбюрк, Колин Фёрт, Бенедикт Камбербэтч, Дэниэл Мейс, Эдриан Скарборо



О фильме:

6 апреля 1917 года, разгар Первой мировой войны, Западный фронт на севере Франции. Британский генерал поручает капралу Блэйку и его сослуживцу смертельно опасную миссию. Они должны пересечь вражескую территорию, вроде бы оставленную германскими войсками, и доставить приказ об отмене наступления во 2-й батальон Девонширского полка, иначе 1600 солдат попадут в ловушку противника, в том числе и брат Блэйка.







Страна: Великобритания, США, Индия, Испания, Канада

Студия: Amblin Partners, DreamWorks SKG, Neal Street Productions, New Republic Pictures

Продолжительность: 01:58:58

Перевод: Дублированный (Лицензия), профессиональный многоголосый, одноголосый



Файл

Качество: BDRip-HEVC 1080p

Формат: MKV

Видео: HEVC, 1920x804, 6683 Кбит/с, 23.976 кадр/с, 10 бит

Звук:

Аудио1: Русская, AC3 640 Кбит/с, 6 канала(ов),16bit 48,0 КГц Дублированный (Лицензия)

Аудио2: Русская, AC3 192 Кбит/с, 2 канала(ов),16bit 48,0 КГц MVO (HDRezka)

Аудио3: Русская, AC3 640 Кбит/с, 6 канала(ов),16bit 48,0 КГц AVO (Сербин)

Аудио4: Русская, AC3 640 Кбит/с, 6 канала(ов),16bit 48,0 КГц AVO (Гаевский)

Аудио5: Русская, AC3 640 Кбит/с, 6 канала(ов),16bit 48,0 КГц AVO (Назаров)

Аудио6: Русская, AC3 448 Кбит/с, 6 канала(ов),16bit 48,0 КГц AVO (Zamez)

Аудио7: English, AC3 640 Кбит/с, 6 канала(ов),16bit 48,0 КГц

Субтитры: Русские (форсированные, полные), английские

Навигация по главам: Есть



Mediainfox265 [info]: frame I: 770, Avg QP:17.33 kb/s: 23746.61

x265 [info]: frame P: 27536, Avg QP:19.13 kb/s: 14713.58

x265 [info]: frame B: 142838, Avg QP:20.94 kb/s: 5042.47

x265 [info]: consecutive B-frames: 0.8% 0.6% 1.5% 30.8% 12.2% 28.8% 5.2% 6.3% 2.8% 4.9% 1.3% 1.8% 0.7% 0.6% 0.4% 0.5% 0.7%



General

Unique ID : 301263796835761270708486663796138747529 (0xE2A54BF7B6FFE37343E35031F434A689)

Complete name : H:HEVC41917 (2019) BDRip-HEVC 1080p - KORSAR.mkv

Format : Matroska

Format version : Version 4 / Version 2

File size : 8.75 GiB

Duration : 1 h 58 min

Overall bit rate : 10.5 Mb/s

Movie name : 1917 (2019)_rip_by_Cthulhu

Encoded date : UTC 2020-05-22 08:18:22

Writing application : mkvmerge v46.0.0 ('No Deeper Escape') 64-bit

Writing library : libebml v1.3.10 + libmatroska v1.5.2

Cover : Yes

Attachments : cover21.jpg



Video

ID : 1

Format : HEVC

Format/Info : High Efficiency Video Coding

Format profile : Main [email protected]@High

Codec ID : V_MPEGH/ISO/HEVC

Duration : 1 h 58 min

Bit rate : 6 683 kb/s

Width : 1 920 pixels

Height : 804 pixels

Display aspect ratio : 2.40:1

Frame rate mode : Constant

Frame rate : 23.976 (24000/1001) FPS

Color space : YUV

Chroma subsampling : 4:2:0

Bit depth : 10 bits

Bits/(Pixel*Frame) : 0.181

Stream size : 5.55 GiB (63%)

Writing library : x265 3.3+2-gbe2d82093:[Windows][GCC 10.0.1][64 bit] 10bit

Encoding settings : cpuid=1111039 / frame-threads=4 / numa-pools=16 / wpp / no-pmode / no-pme / no-psnr / no-ssim / log-level=2 / input-csp=1 / input-res=1920x804 / interlace=0 / total-frames=171144 / level-idc=41 / high-tier=1 / uhd-bd=0 / ref=6 / no-allow-non-conformance / no-repeat-headers / annexb / no-aud / no-hrd / info / hash=0 / no-temporal-layers / open-gop / min-keyint=23 / keyint=240 / gop-lookahead=0 / bframes=16 / b-adapt=2 / b-pyramid / bframe-bias=0 / rc-lookahead=60 / lookahead-slices=1 / scenecut=40 / hist-scenecut=0 / radl=0 / no-splice / no-intra-refresh / ctu=32 / min-cu-size=8 / rect / amp / max-tu-size=32 / tu-inter-depth=4 / tu-intra-depth=4 / limit-tu=1 / rdoq-level=2 / dynamic-rd=0.00 / no-ssim-rd / signhide / no-tskip / nr-intra=0 / nr-inter=0 / no-constrained-intra / no-strong-intra-smoothing / max-merge=5 / limit-refs=3 / limit-modes / me=3 / subme=7 / merange=57 / temporal-mvp / no-frame-dup / hme / Level / merange / L0,L1,L2=16,32,57 / weightp / weightb / no-analyze-src-pics / deblock=-3:-2 / no-sao / no-sao-non-deblock / rd=6 / selective-sao=0 / no-early-skip / rskip / rskip-edge-threshold=0.050000 / no-fast-intra / no-tskip-fast / no-cu-lossless / b-intra / no-splitrd-skip / rdpenalty=0 / psy-rd=2.00 / psy-rdoq=1.00 / no-rd-refine / no-lossless / cbqpoffs=0 / crqpoffs=0 / rc=crf / crf=18.5 / qcomp=0.60 / qpstep=4 / stats-write=0 / stats-read=0 / vbv-maxrate=50000 / vbv-bufsize=50000 / vbv-init=0.9 / crf-max=0.0 / crf-min=0.0 / ipratio=1.40 / pbratio=1.30 / aq-mode=4 / aq-strength=0.80 / no-cutree / zone-count=0 / no-strict-cbr / qg-size=32 / no-rc-grain / qpmax=69 / qpmin=0 / no-const-vbv / sar=1 / overscan=0 / videoformat=5 / range=0 / colorprim=1 / transfer=1 / colormatrix=1 / chromaloc=0 / display-window=0 / cll=0,0 / min-luma=0 / max-luma=1023 / log2-max-poc-lsb=8 / vui-timing-info / vui-hrd-info / slices=1 / no-opt-qp-pps / no-opt-ref-list-length-pps / no-multi-pass-opt-rps / scenecut-bias=0.05 / hist-threshold=0.01 / no-opt-cu-delta-qp / no-aq-motion / no-hdr10 / no-hdr10-opt / no-dhdr10-opt / no-idr-recovery-sei / analysis-reuse-level=0 / analysis-save-reuse-level=0 / analysis-load-reuse-level=0 / scale-factor=0 / refine-intra=0 / refine-inter=0 / refine-mv=1 / refine-ctu-distortion=0 / no-limit-sao / ctu-info=0 / no-lowpass-dct / refine-analysis-type=0 / copy-pic=1 / max-ausize-factor=1.0 / no-dynamic-refine / no-single-sei / no-hevc-aq / no-svt / no-field / qp-adaptation-range=1.00 / no-scenecut-aware-qpconformance-window-offsets / right=0 / bottom=0

Language : English

Default : Yes

Forced : No

Color range : Limited

Color primaries : BT.709

Transfer characteristics : BT.709

Matrix coefficients : BT.709



Audio #1

ID : 2

Format : AC-3

Format/Info : Audio Coding 3

Commercial name : Dolby Digital

Codec ID : A_AC3

Duration : 1 h 58 min

Bit rate mode : Constant

Bit rate : 640 kb/s

Channel(s) : 6 channels

Channel layout : L R C LFE Ls Rs

Sampling rate : 48.0 kHz

Frame rate : 31.250 FPS (1536 SPF)

Bit depth : 16 bits

Compression mode : Lossy

Stream size : 545 MiB (6%)

Title : Dub

Language : Russian

Service kind : Complete Main

Default : Yes

Forced : No



Audio #2

ID : 3

Format : AC-3

Format/Info : Audio Coding 3

Commercial name : Dolby Digital

Codec ID : A_AC3

Duration : 1 h 58 min

Bit rate mode : Constant

Bit rate : 192 kb/s

Channel(s) : 2 channels

Channel layout : L R

Sampling rate : 48.0 kHz

Frame rate : 31.250 FPS (1536 SPF)

Bit depth : 16 bits

Compression mode : Lossy

Stream size : 163 MiB (2%)

Title : MVO (HDRezka)

Language : Russian

Service kind : Complete Main

Default : No

Forced : No



Audio #3

ID : 4

Format : AC-3

Format/Info : Audio Coding 3

Commercial name : Dolby Digital

Codec ID : A_AC3

Duration : 1 h 58 min

Bit rate mode : Constant

Bit rate : 640 kb/s

Channel(s) : 6 channels

Channel layout : L R C LFE Ls Rs

Sampling rate : 48.0 kHz

Frame rate : 31.250 FPS (1536 SPF)

Bit depth : 16 bits

Compression mode : Lossy

Stream size : 545 MiB (6%)

Title : AVO (Сербин)

Language : Rundi

Service kind : Complete Main

Default : No

Forced : No



Audio #4

ID : 5

Format : AC-3

Format/Info : Audio Coding 3

Commercial name : Dolby Digital

Codec ID : A_AC3

Duration : 1 h 58 min

Bit rate mode : Constant

Bit rate : 640 kb/s

Channel(s) : 6 channels

Channel layout : L R C LFE Ls Rs

Sampling rate : 48.0 kHz

Frame rate : 31.250 FPS (1536 SPF)

Bit depth : 16 bits

Compression mode : Lossy

Stream size : 545 MiB (6%)

Title : AVO (Гаевский)

Language : Russian

Service kind : Complete Main

Default : No

Forced : No



Audio #5

ID : 6

Format : AC-3

Format/Info : Audio Coding 3

Commercial name : Dolby Digital

Codec ID : A_AC3

Duration : 1 h 58 min

Bit rate mode : Constant

Bit rate : 640 kb/s

Channel(s) : 6 channels

Channel layout : L R C LFE Ls Rs

Sampling rate : 48.0 kHz

Frame rate : 31.250 FPS (1536 SPF)

Bit depth : 16 bits

Compression mode : Lossy

Stream size : 545 MiB (6%)

Title : AVO (Назаров)

Language : Russian

Service kind : Complete Main

Default : No

Forced : No



Audio #6

ID : 7

Format : AC-3

Format/Info : Audio Coding 3

Commercial name : Dolby Digital

Codec ID : A_AC3

Duration : 1 h 58 min

Bit rate mode : Constant

Bit rate : 448 kb/s

Channel(s) : 6 channels

Channel layout : L R C LFE Ls Rs

Sampling rate : 48.0 kHz

Frame rate : 31.250 FPS (1536 SPF)

Bit depth : 16 bits

Compression mode : Lossy

Stream size : 381 MiB (4%)

Title : AVO (Zamez)

Language : Russian

Service kind : Complete Main

Default : No

Forced : No



Audio #7

ID : 8

Format : AC-3

Format/Info : Audio Coding 3

Commercial name : Dolby Digital

Codec ID : A_AC3

Duration : 1 h 58 min

Bit rate mode : Constant

Bit rate : 640 kb/s

Channel(s) : 6 channels

Channel layout : L R C LFE Ls Rs

Sampling rate : 48.0 kHz

Frame rate : 31.250 FPS (1536 SPF)

Bit depth : 16 bits

Compression mode : Lossy

Stream size : 545 MiB (6%)

Language : English

Service kind : Complete Main

Default : No

Forced : No



Text #1

ID : 9

Format : UTF-8

Codec ID : S_TEXT/UTF8

Codec ID/Info : UTF-8 Plain Text

Duration : 1 h 31 min

Bit rate : 1 b/s

Count of elements : 25

Stream size : 1.30 KiB (0%)

Title : Forced

Language : Russian

Default : No

Forced : No



Text #2

ID : 10

Format : UTF-8

Codec ID : S_TEXT/UTF8

Codec ID/Info : UTF-8 Plain Text

Duration : 1 h 49 min

Bit rate : 57 b/s

Count of elements : 837

Stream size : 45.7 KiB (0%)

Title : Full

Language : Russian

Default : No

Forced : No



Text #3

ID : 11

Format : UTF-8

Codec ID : S_TEXT/UTF8

Codec ID/Info : UTF-8 Plain Text

Duration : 1 h 45 min

Bit rate : 35 b/s

Count of elements : 937

Stream size : 27.1 KiB (0%)

Title : Full

Language : English

Default : No

Forced : No



Text #4

ID : 12

Format : UTF-8

Codec ID : S_TEXT/UTF8

Codec ID/Info : UTF-8 Plain Text

Duration : 1 h 45 min

Bit rate : 40 b/s

Count of elements : 1100

Stream size : 31.2 KiB (0%)

Title : SDH

Language : English

Default : No

Forced : No



Menu

00:00:00.000 : en:Chapter 01

00:04:59.424 : en:Chapter 02

00:08:19.374 : en:Chapter 03

00:13:26.639 : en:Chapter 04

00:16:38.789 : en:Chapter 05

00:23:32.494 : en:Chapter 06

00:30:28.660 : en:Chapter 07

00:35:34.549 : en:Chapter 08

00:42:25.376 : en:Chapter 09

00:51:34.091 : en:Chapter 10

00:56:36.310 : en:Chapter 11

01:02:29.079 : en:Chapter 12

01:06:33.573 : en:Chapter 13

01:12:04.320 : en:Chapter 14

01:19:45.197 : en:Chapter 15

01:28:47.822 : en:Chapter 16

01:33:43.451 : en:Chapter 17

01:38:11.594 : en:Chapter 18

01:41:43.681 : en:Chapter 19

01:49:46.580 : en:Chapter 20Скриншоты





Релиз от: Cthulhu

Discussion

Comments 0

Post Your Comment

Files in this torrent

FILENAMESIZE
1917 (2019) BDRip-HEVC 1080p - KORSAR.mkv8.7 GB

Alternative Torrents for 'HEVC KORSAR'.

TORRENT NAMEADDEDSIZESEEDSPEERSHEALTH
6/16/202010.9 GB81
6/16/20209.4 GB82
6/16/20209.8 GB45
6/16/202014.6 GB31
6/5/202010.7 GB00
6/2/20208.6 GB00
6/2/202020.9 GB00
6/2/20207.9 GB00
6/2/20208.6 GB00
5/31/20207.2 GB00
5/29/202010.8 GB00
5/22/20208.7 GB00
5/20/202012.5 GB00
5/14/202012.4 GB00
5/14/20208.5 GB00