The Night Clerk 2020 1080p Bluray HEVC DYS-HDMA 5.1-DDR

Torrent Details

The Night Clerk 2020 1080p Bluray HEVC DYS-HDMA 5.1-DDR
The Night Clerk 2020 1080p Bluray HEVC DYS-HDMA 5.1-DDR

NAME
The Night Clerk 2020 1080p Bluray HEVC DYS-HDMA 5.1-DDR.torrent
CATEGORY
Movies
INFOHASH
a3f164be11be672a8c2f5a6eb32569df2f69cdd1
SIZE
4.7 GB in 1 file
ADDED
Uploaded on 23-05-2020 by our crawler pet called "Spidey".
SWARM
0 seeders & 0 peers
RATING
No votes yet.

Please login to vote for this torrent.


Description



















Format                                   : Matroska

Format version                           : Version 4

File size                                : 4.75 GiB

Duration                                 : 1 h 30 min

Overall bit rate mode                    : Variable

Overall bit rate                         : 7 531 kb/s

Encoded date                             : UTC 2020-05-22 21:44:25

Writing application                      : mkvmerge v45.0.0 ('Heaven in Pennies') 64-bit

Writing library                          : libebml v1.3.10 + libmatroska v1.5.2



Video

ID                                       : 1

Format                                   : HEVC

Format/Info                              : High Efficiency Video Coding

Format profile                           : Main [email protected]@High

Codec ID                                 : V_MPEGH/ISO/HEVC

Duration                                 : 1 h 30 min

Bit rate                                 : 5 840 kb/s

Width                                    : 1 920 pixels

Height                                   : 1 032 pixels

Display aspect ratio                     : 1.85:1

Frame rate mode                          : Constant

Frame rate                               : 23.976 (24000/1001) FPS

Color space                              : YUV

Chroma subsampling                       : 4:2:0

Bit depth                                : 10 bits

Bits/(Pixel*Frame)                       : 0.123

Stream size                              : 3.68 GiB (78%)

Language                                 : English

Default                                  : Yes

Forced                                   : No

Color range                              : Limited

Color primaries                          : BT.709

Transfer characteristics                 : BT.709

Matrix coefficients                      : BT.709



Audio

ID                                       : 2

Format                                   : DTS XLL

Format/Info                              : Digital Theater Systems

Commercial name                          : DTS-HD Master Audio

Codec ID                                 : A_DTS

Duration                                 : 1 h 30 min

Bit rate mode                            : Variable

Bit rate                                 : 1 678 kb/s

Channel(s)                               : 6 channels

Channel layout                           : C L R Ls Rs LFE

Sampling rate                            : 48.0 kHz

Frame rate                               : 93.750 FPS (512 SPF)

Bit depth                                : 16 bits

Compression mode                         : Lossless

Stream size                              : 1.06 GiB (22%)

Language                                 : English

Default                                  : Yes

Forced                                   : No



Text

ID                                       : 3

Format                                   : PGS

Muxing mode                              : zlib

Codec ID                                 : S_HDMV/PGS

Codec ID/Info                            : Picture based subtitle format used on BDs/HD-DVDs

Duration                                 : 1 h 29 min

Bit rate                                 : 25.4 kb/s

Count of elements                        : 1538

Stream size                              : 16.2 MiB (0%)

Language                                 : English



MikeKhan /Desitorrents.tv

Discussion

Comments 0

Post Your Comment

Files in this torrent

FILENAMESIZE
The.Night.Clerk.2020.1080p.Bluray.HEVC.DYS-HDMA.5.1-DDR.mkv4.7 GB

Alternative Torrents for 'Night Clerk Bluray HEVC DYSHDMA .DDR'.

TORRENT NAMEADDEDSIZESEEDSPEERSHEALTH
9/14/20201.8 GB1752325
9/14/2020888 MB1377136
9/20/2020895 MB1252425
9/20/20201.8 GB1113318
9/20/20201.8 GB94872
9/20/20201.6 GB922211
9/18/2020782 MB911248
9/22/20201.4 GB853310
9/16/2020901 MB69252
9/11/20201.8 GB500222
Yesterday1.8 GB459259
9/13/20202 GB35416
9/20/20201.5 GB32820
9/21/20202.2 GB323162
9/17/2020952 MB32236