Bloodshot BDRemux 1080p Pk

Torrent Details

Bloodshot BDRemux 1080p pk
Bloodshot BDRemux 1080p pk

NAME
Bloodshot BDRemux 1080p pk.torrent
CATEGORY
Movies
INFOHASH
919bed31285bda02e41f50cfbca8d8db44a6c6c7
SIZE
22.5 GB in 1 file
ADDED
Uploaded on 23-05-2020 by our crawler pet called "Spidey".
SWARM
0 seeders & 0 peers
RATING
No votes yet.

Please login to vote for this torrent.


Description

Информация о фильме

Название: Бладшот

Оригинальное название: Bloodshot

Год выхода: 2020

Жанр: Фантастика, боевик, драма

Режиссер: Дэйв Уилсон / Dave Wilson

В ролях: Вин Дизель, Гай Пирс, Ламорн Моррис, Эйса Гонсалес, Сэм Хьюэн, Сиддхартх Дхананджай, Талула Райли, Тоби Кеббелл, Йоуханнес Хёйкьюр Йоуханнессон, Алекс Эрнандез



О фильме:

Военный Рэй Гаррисон возвращается из очередной горячей точки к любимой красавице-жене. Супруги проводят отпуск в Европе, но счастье длится недолго — террористы, не сумев вытянуть из Рэя нужную им информацию, убивают жену, а затем и его самого. Но вскоре корпорация RST возвращает его к жизни. Армия нанороботов в крови превратила Рэя в бессмертного Бладшота, и теперь солдат наделен сверхсилой и способностью мгновенно самоисцеляться, вот только память оставляет желать лучшего. Но вскоре воспоминания о последних мгновениях жизни возвращаются, и Бладшот отправляется мстить за смерть жены.







Страна: Китай, США

Студия: Columbia Pictures, Cross Creek Pictures, Bona Film Group

Продолжительность: 01:49:20

Перевод: 1: Профессиональный (дублированный) (Лицензия)

2: Профессиональный (многоголосый закадровый) (HDRezka Studio)

3: Любительский (многоголосый закадровый) (Mallorn Studio)

4: Авторский (одноголосый закадровый) Вячеслав Замез (Zamez)

5: Украинский (дублированный)



Файл

Кодек: H.264

Качество: BDRemux 1080p

Видео: AVC/H.264, 1920x1080, 25100 Kbps, 23.976 fps

Звук:

Аудио 1: Русский | AC-3, 6 ch, 640 Kbps, 48.0 KHz DUB (Лицензия)

Аудио 2: Русский | AC-3, 6 ch, 448 Kbps, 48.0 KHz MVO HDrezka Studio

Аудио 3: Русский | AC-3, 6 ch, 448 Kbps, 48.0 KHz MVO Mallorn Studio

Аудио 4: Русский | AC-3, 6 ch, 448 Kbps, 48.0 KHz AVO Zamez

Аудио 5: Украинский | AC-3, 2.0 ch, 192 Kbps, 48.0 KHz DUB iTunes

Аудио 6: Английский | DTS-HD MA, 6 ch, 2258 Kbps, 48.0 KHz, 16-bit (DTS Core: 5.1 / 48 kHz / 1509 kbps / 16-bit)

Субтитры: Русские (Forced, Full), Украинские (Full), Английские (Full, SDH)



Скриншоты



MediaInfo[code]

General

Unique ID : 169940567794333640300711773295791525725 (0x7FD95CE24DDE3A506DF8CD5D0E734F5D)

Complete name : /Volumes/Promise 2/Bloodshot.BDRemux.1080p.pk.mkv

Format : Matroska

Format version : Version 4

File size : 22.5 GiB

Duration : 1h 49mn

Overall bit rate mode : Variable

Overall bit rate : 29.5 Mbps

Movie name : Bloodshot BDRemux 1080p pk

Encoded date : UTC 2020-05-21 10:20:37

Writing application : mkvmerge v46.0.0 ('No Deeper Escape') 64-bit

Writing library : libebml v1.3.10 + libmatroska v1.5.2

Cover : Yes

Attachments : cover.jpg / cover.jpg



Video

ID : 1

Format : AVC

Format/Info : Advanced Video Codec

Format profile : [email protected]

Format settings : CABAC / 2 Ref Frames

Format settings, CABAC : Yes

Format settings, ReFrames : 2 frames

Format settings, GOP : M=1, N=10

Codec ID : V_MPEG4/ISO/AVC

Duration : 1h 49mn

Bit rate mode : Variable

Bit rate : 25.1 Mbps

Width : 1 920 pixels

Height : 1 080 pixels

Display aspect ratio : 16:9

Frame rate mode : Constant

Frame rate : 23.976 (24000/1001) fps

Color space : YUV

Chroma subsampling : 4:2:0

Bit depth : 8 bits

Scan type : Progressive

Bits/(Pixel*Frame) : 0.504

Stream size : 19.1 GiB (85%)

Language : English

Default : Yes

Forced : No



Audio #1

ID : 2

Format : AC-3

Format/Info : Audio Coding 3

Commercial name : Dolby Digital

Codec ID : A_AC3

Duration : 1h 49mn

Bit rate mode : Constant

Bit rate : 640 Kbps

Channel(s) : 6 channels

Channel layout : L R C LFE Ls Rs

Sampling rate : 48.0 KHz

Frame rate : 31.250 fps (1536 SPF)

Compression mode : Lossy

Stream size : 500 MiB (2%)

Title : Russian Dub License

Language : Russian

Service kind : Complete Main

Default : Yes

Forced : No



Audio #2

ID : 3

Format : AC-3

Format/Info : Audio Coding 3

Commercial name : Dolby Digital

Codec ID : A_AC3

Duration : 1h 49mn

Bit rate mode : Constant

Bit rate : 448 Kbps

Channel(s) : 6 channels

Channel layout : L R C LFE Ls Rs

Sampling rate : 48.0 KHz

Frame rate : 31.250 fps (1536 SPF)

Compression mode : Lossy

Stream size : 350 MiB (2%)

Title : Russian MVO HDRezka Studio

Language : Russian

Service kind : Complete Main

Default : No

Forced : No



Audio #3

ID : 4

Format : AC-3

Format/Info : Audio Coding 3

Commercial name : Dolby Digital

Codec ID : A_AC3

Duration : 1h 49mn

Bit rate mode : Constant

Bit rate : 448 Kbps

Channel(s) : 6 channels

Channel layout : L R C LFE Ls Rs

Sampling rate : 48.0 KHz

Frame rate : 31.250 fps (1536 SPF)

Compression mode : Lossy

Stream size : 350 MiB (2%)

Title : Russian MVO Mallorn Studio

Language : Russian

Service kind : Complete Main

Default : No

Forced : No



Audio #4

ID : 5

Format : AC-3

Format/Info : Audio Coding 3

Commercial name : Dolby Digital

Codec ID : A_AC3

Duration : 1h 49mn

Bit rate mode : Constant

Bit rate : 448 Kbps

Channel(s) : 6 channels

Channel layout : L R C LFE Ls Rs

Sampling rate : 48.0 KHz

Frame rate : 31.250 fps (1536 SPF)

Compression mode : Lossy

Stream size : 350 MiB (2%)

Title : Russian VO Zamez

Language : Russian

Service kind : Complete Main

Default : No

Forced : No



Audio #5

ID : 6

Format : AC-3

Format/Info : Audio Coding 3

Commercial name : Dolby Digital

Codec ID : A_AC3

Duration : 1h 49mn

Bit rate mode : Constant

Bit rate : 192 Kbps

Channel(s) : 2 channels

Channel layout : L R

Sampling rate : 48.0 KHz

Frame rate : 31.250 fps (1536 SPF)

Compression mode : Lossy

Stream size : 150 MiB (1%)

Title : Ukrainian Dub iTunes

Language : Ukrainian

Service kind : Complete Main

Default : No

Forced : No



Audio #6

ID : 7

Format : DTS XLL

Format/Info : Digital Theater Systems

Commercial name : DTS-HD Master Audio

Codec ID : A_DTS

Duration : 1h 49mn

Bit rate mode : Variable

Bit rate : 2 258 Kbps

Channel(s) : 6 channels

Channel layout : C L R Ls Rs LFE

Sampling rate : 48.0 KHz

Frame rate : 93.750 fps (512 SPF)

Bit depth : 16 bits

Compression mode : Lossless

Stream size : 1.72 GiB (8%)

Title : English Original

Language : English

Default : No

Forced : No



Text #1

ID : 8

Format : UTF-8

Codec ID : S_TEXT/UTF8

Codec ID/Info : UTF-8 Plain Text

Duration : 1h 47mn

Bit rate : 0 bps

Count of elements : 10

Stream size : 400 Bytes (0%)

Title : Russian forced

Language : Russian

Default : Yes

Forced : No



Text #2

ID : 9

Format : UTF-8

Codec ID : S_TEXT/UTF8

Codec ID/Info : UTF-8 Plain Text

Duration : 1h 48mn

Bit rate : 72 bps

Count of elements : 1072

Stream size : 57.8 KiB (0%)

Title : Russian full

Language : Russian

Default : No

Forced : No



Text #3

ID : 10

Format : UTF-8

Codec ID : S_TEXT/UTF8

Codec ID/Info : UTF-8 Plain Text

Duration : 1h 48mn

Bit rate : 66 bps

Count of elements : 1071

Stream size : 52.6 KiB (0%)

Title : Ukrainian full

Language : Ukrainian

Default : No

Forced : No



Text #4

ID : 11

Format : UTF-8

Codec ID : S_TEXT/UTF8

Codec ID/Info : UTF-8 Plain Text

Duration : 1h 41mn

Bit rate : 46 bps

Count of elements : 1150

Stream size : 34.9 KiB (0%)

Title : Englisg full

Language : English

Default : No

Forced : No



Text #5

ID : 12

Format : UTF-8

Codec ID : S_TEXT/UTF8

Codec ID/Info : UTF-8 Plain Text

Duration : 1h 47mn

Bit rate : 51 bps

Count of elements : 1493

Stream size : 40.6 KiB (0%)

Title : English SDH

Language : English

Default : No

Forced : No



Menu

00:00:00.000 : en:Chapter 01

00:07:06.384 : en:Chapter 02

00:13:56.210 : en:Chapter 03

00:20:36.861 : en:Chapter 04

00:25:05.546 : en:Chapter 05

00:32:11.179 : en:Chapter 06

00:41:41.499 : en:Chapter 07

00:46:39.380 : en:Chapter 08

00:53:35.629 : en:Chapter 09

01:02:28.495 : en:Chapter 10

01:08:59.344 : en:Chapter 11

01:12:42.525 : en:Chapter 12

01:19:15.918 : en:Chapter 13

01:26:49.996 : en:Chapter 14

01:31:07.379 : en:Chapter 15

01:38:31.531 : en:Chapter 16

01:44:11.245 : en:Chapter 17

Discussion

Comments 0

Post Your Comment

Files in this torrent

FILENAMESIZE
Bloodshot.BDRemux.1080p.pk.mkv22.5 GB

Alternative Torrents for 'Bloodshot pk'.

TORRENT NAMEADDEDSIZESEEDSPEERSHEALTH
5/23/202022.5 GB00