Coraline 2009 3D 1080p Half-SBS

Torrent Details

Coraline 2009 3D 1080p Half-SBSCoraline 2009 3D 1080p Half-SBS

NAME
Coraline 2009 3D 1080p Half-SBS.torrent
CATEGORY
Movies
INFOHASH
da2ba16ded695d8c85286f3e893958213c4e16b4
SIZE
8.4 GB in 2 files
ADDED
Uploaded on 21-02-2012 by our crawler pet called "Spidey".
SWARM
0 seeders & 0 peers
RATING
No votes yet.

Please login to vote for this torrent.


Description

Coraline 2009 3D 1080p Half-SBS



*Please Note*

This movie requires the use of a 3D TV to view properly!



Coraline Jones (Dakota Fanning) moves from Pontiac, Michigan with her mother (Teri Hatcher) and father (John Hodgman) to the Pink Palace Apartments in Ashland, Oregon: an old house subdivided into three residences. With her parents frantically working on a gardening catalog in order to make ends meet and paying little attention to her, Coraline begins to feel neglected. While exploring the grounds, she meets Wyborn Lovat (Robert Bailey, Jr.), the talkative, nervous grandson of the landlady. Wyborn finds a doll that is an exact replica of Coraline and gives it to her. Back in the house, Coraline finds an oddly small door that has been covered over with wallpaper. She asks her mother to unlock it, only to find a brick wall behind it.

That night, Coraline is awakened by the sound of a small mouse and follows it to the small door. She discovers that the brick wall has disappeared, replaced by a long corridor to another world. At the other end, Coraline finds herself in the "Other World", which is inhabited by her "Other Mother" and "Other Father" (They. have black buttons in place of their eyes). In sharp contrast to her real parents, the Others parents pay close attention to Coraline.the other mother cooks well and the other father gardens.she goes to get the other father when she is pinned down by dragon snappers as they tickle her the other father rescues her and show her the garden then they eat and coriline goes to bed She decides to stay the night in the Other World, but when she wakes the next morning, she finds herself back in her bed in the real world.

The next day, Coraline tries to tell her parents what happened, but they think she has just had a crazy dream. She visits the other residents of the Pink Palace, the eccentric Russian acrobat Mr. Bobinsky (Ian McShane) and retired English actresses Miss Spink (Jennifer Saunders) and Miss Forcible (Dawn French), who warn Coraline that she is in danger. She also runs into Wybie, who tells her that his grandmother's twin sister had found a doll that looked exactly like her sister shortly before she disappeared, never to be seen again.

Coraline continues to go to the Other World at night and is entertained by the Other versions of her neighbors, including the Other Wybie, who has been muted by the Other Mother; the Other Mr. Bobinsky, who has an amazing professional mouse circus; and the Other Spink and Forcible, who entertain Coraline with an elaborate Broadway-like show. During one visit, Coraline encounters a black cat from her own world (Keith David), who has the ability to talk in the Other World. He warns Coraline of the dangers of the place, but Coraline pays him no mind.



Please watch the above video at maximum resolution and full screen. Now, imagine THAT in 3D! <:



Format : Matroska
File size : 8.22 GiB
Duration : 1h 40mn
Overall bit rate : 11.7 Mbps
Encoded date : UTC 2010-07-20 07:58:43
Writing application : mkvmerge v3.3.0 ('Language') gebaut am Mar 24 2010 14:59:24
Writing library : libebml v0.8.0 + libmatroska v0.9.0



ID : 1
Format : AVC
Format/Info : Advanced Video Codec
Format profile : [email protected]
Format settings, CABAC : Yes
Format settings, ReFrames : 4 frames
Codec ID : V_MPEG4/ISO/AVC
Duration : 1h 40mn
Bit rate : 9 517 Kbps
Nominal bit rate : 10 000 Kbps
Width : 1 920 pixels
Height : 1 080 pixels
Display aspect ratio : 16:9
Frame rate : 23.976 fps
Color space : YUV
Chroma subsampling : 4:2:0
Bit depth : 8 bits
Scan type : Progressive
Bits/(Pixel*Frame) : 0.191
Stream size : 6.69 GiB (81%)
Title : 1080p-side-by-side
Writing library : x264 core 104 r1677 19df41a
Language : English



ID : 2
Format : AC-3
Format/Info : Audio Coding 3
Mode extension : CM (complete main)
Codec ID : A_AC3
Duration : 1h 40mn
Bit rate mode : Constant
Bit rate : 448 Kbps
Channel(s) : 6 channels
Channel positions : Front: L C R, Side: L R, LFE
Sampling rate : 48.0 KHz
Bit depth : 16 bits
Compression mode : Lossy
Stream size : 322 MiB (4%)
Title : retail ac3
Language : German



ID : 3
Format : DTS
Format/Info : Digital Theater Systems
Codec ID : A_DTS
Duration : 1h 40mn
Bit rate mode : Constant
Bit rate : 1 510 Kbps
Channel(s) : 6 channels
Channel positions : Front: L C R, Side: L R, LFE
Sampling rate : 48.0 KHz
Bit depth : 24 bits
Compression mode : Lossy
Stream size : 1.06 GiB (13%)
Title : core from dtshd-ma
Language : English




If it says 0 seeders please note that it IS in fact backed by a 1000Mbs Seedbox

Enjoy!

Discussion

Comments 0

Post Your Comment

Files in this torrent

FILENAMESIZE
Coraline 2009 3D 1080p Half-SBS Sample.mkv176.8 MB
Coraline 2009 3D 1080p Half-SBS.mkv8.2 GB

Alternative Torrents for 'Coraline HalfSBS'.

There are no alternative torrents found.