Avatar (2009) Extended 2160p HDR 5 1 X265 10bit Phun Psyz

Torrent Details

Avatar (2009) Extended 2160p HDR 5 1 x265 10bit Phun Psyz

NAME
Avatar (2009) Extended 2160p HDR 5 1 x265 10bit Phun Psyz.torrent
CATEGORY
Movies
INFOHASH
19915db23af6b02bd81013abb8648cf1215f563f
SIZE
7 GB in 1 file
ADDED
Uploaded on 28-05-2020 by our crawler pet called "Spidey".
SWARM
0 seeders & 0 peers
RATING
No votes yet.

Please login to vote for this torrent.


Description

www.imdb.com/title/tt0499549/



A paraplegic Marine dispatched to the moon Pandora on a unique mission becomes torn between following his orders and protecting the world he feels is his home.



Source: DDR (Web)







Format                      : Matroska

Format version              : Version 4

File size                   : 7.02 GiB

Duration                    : 2 h 58 min

Overall bit rate            : 5 641 kb/s

Writing application         : HandBrake 1.2.0 2018121700

Writing library             : Lavf58.20.100



Video

ID                          : 1

Format                      : HEVC

Format/Info                 : High Efficiency Video Coding

Format profile              : Main [email protected]@High

Codec ID                    : V_MPEGH/ISO/HEVC

Duration                    : 2 h 58 min

Bit rate                    : 5 209 kb/s

Width                       : 3 840 pixels

Height                      : 2 160 pixels

Display aspect ratio        : 16:9

Frame rate mode             : Constant

Frame rate                  : 23.976 (24000/1001) FPS

Color space                 : YUV

Chroma subsampling          : 4:2:0

Bit depth                   : 10 bits

Bits/(Pixel*Frame)          : 0.026

Stream size                 : 6.48 GiB (92%)

Writing library             : x265 2.9:[Windows][GCC 7.1.0][64 bit] 10bit

Color range                 : Full

Color primaries             : BT.2020

Transfer characteristics    : PQ

Matrix coefficients         : BT.2020 non-constant



Audio

ID                          : 2

Format                      : AC-3

Format/Info                 : Audio Coding 3

Commercial name             : Dolby Digital

Codec ID                    : A_AC3

Duration                    : 2 h 58 min

Bit rate mode               : Constant

Bit rate                    : 320 kb/s

Channel(s)                  : 6 channels

Channel layout              : L R C LFE Ls Rs

Sampling rate               : 48.0 kHz

Frame rate                  : 31.250 FPS (1536 SPF)

Bit depth                   : 16 bits

Compression mode            : Lossy

Delay relative to video     : 1 ms

Stream size                 : 408 MiB (6%)

Title                       : Surround

Language                    : English



Text

Language                    : English

Language                    : English

Language                    : French

Language                    : French

Language                    : English

Language                    : English

Language                    : English

Language                    : English

Default                     : No

Forced                      : No



Menu

00:05:25.659                : :A New World

00:10:23.289                : :You Are Not in Kansas Anymore

00:11:47.373                : :"This Is Your Avatar Now, Jake."

00:15:58.291                : :"This Is Why We're Here..."

00:23:54.767                : :Meeting Trudy

00:24:38.811                : :Colonel Quaritch

00:27:53.672                : :First Sortie

00:30:27.159                : :Abandoned Schoolhouse

00:32:04.589                : :Thanator Chase

00:37:15.567                : :A Sign

00:39:07.679                : :Viperwolves

00:41:18.476                : :Neytiri

00:49:16.287                : :The Omaticaya Clan

00:55:42.005                : :Covert Report

01:01:08.999                : :The Hallelujah Mountains

01:07:02.685                : :Learn Fast or Die

01:11:49.639                : :A Mother's Pain

01:18:07.349                : :Banshee Rookery

01:22:36.952                : :First Flight

01:26:11.833                : :Clan Hunt

01:27:53.268                : :Last Shadow

01:33:00.241                : :A Son of the Omaticaya

01:37:36.517                : :Willow Glade Destruction

01:46:49.069                : :Conflict Escalation

01:50:02.596                : :"You Will Never Be One of the People!"

01:51:53.373                : :Assault on Home Tree

01:58:29.769                : :Aftermath

02:02:12.659                : :Escape From Hell's Gate

02:07:51.664                : :"There's Something We Gotta Do..."

02:09:30.429                : :Toruk Macto

02:12:35.948                : :"She's Real"

02:16:02.821                : :Recuiting the Clans

02:19:31.029                : :Preamble to Battle

02:23:59.297                : :Battle for Pandora

02:32:13.124                : :Fall of the Heroes

02:34:51.949                : :Eywa

02:40:01.592                : :Quaritch Fight

02:46:29.980                : :"I See You"

02:46:47.331                : :My Brother

02:48:56.793                : :Transformation

02:51:31.615                : :End Credits

Discussion

Comments 0

Post Your Comment

Files in this torrent

FILENAMESIZE
Avatar (2009) Extended 2160p HDR 5.1 x265 10bit Phun Psyz.mkv7 GB

Alternative Torrents for 'Avatar Extended HDR bit Phun Psyz'.

TORRENT NAMEADDEDSIZESEEDSPEERSHEALTH
6/22/20202 GB38123
6/16/20201.5 GB2215
6/19/20201.9 GB19710
6/25/20201.9 GB1884
6/17/20205 GB13813
6/16/202011.4 GB12213
6/27/20202.1 GB11624
6/28/20203.4 GB9326
6/28/20206.6 GB83106
6/22/20203.2 GB668
Yesterday53.2 GB5917
Yesterday3 GB5114
6/18/20209.6 GB4729
6/25/202025.2 GB4626
Yesterday4.7 GB4513