Star Wars Episode II - Attack Of The Clones (2002) REMASTERED (1080p BDRip X265 10bit EAC3 5.1 - Goki)[TAoE]

Torrent Details

Star Wars Episode II - Attack of the Clones (2002) REMASTERED (1080p BDRip x265 10bit EAC3 5.1 - Goki)<span style=color:#fc9c6d>[TAoE]</span>

NAME
Star Wars Episode II - Attack of the Clones (2002) REMASTERED (1080p BDRip x265 10bit EAC3 5.1 - Goki)[TAoE].torrent
CATEGORY
Movies
INFOHASH
a3707adfcffc737ecb25fbb2f0de7134893e4739
SIZE
4.6 GB in 11 files
ADDED
Uploaded on 28-05-2020 by our crawler pet called "Spidey".
SWARM
0 seeders & 0 peers
RATING
No votes yet.

Please login to vote for this torrent.


Description









Star Wars: Episode II - Attack of the Clones (2002) IMDB





























Media Information



General

Unique ID                                : 73809664086343186869966524872474666223 (0x37873966CDAA90A86AC00773C822A4EF)

Complete name                            : Star Wars Episode II - Attack of the Clones (2002) REMASTERED (1080p BDRip x265 10bit EAC3 5.1 - Goki)[TAoE].mkv

Format                                   : Matroska

Format version                           : Version 4

File size                                : 4.62 GiB

Duration                                 : 2 h 22 min

Overall bit rate                         : 4 641 kb/s

Movie name                               : Star Wars Episode II - Attack of the Clones (2002) REMASTERED (1080p BDRip x265 10bit EAC3 5.1 - Goki)[TAoE].mkv

Writing application                      : Lavf58.29.100

Writing library                          : Lavf58.29.100

ErrorDetectionType                       : Per level 1



Video

ID                                       : 1

Format                                   : HEVC

Format/Info                              : High Efficiency Video Coding

Format profile                           : Main [email protected]@Main

Codec ID                                 : V_MPEGH/ISO/HEVC

Duration                                 : 2 h 22 min

Bit rate                                 : 3 641 kb/s

Width                                    : 1 920 pixels

Height                                   : 1 080 pixels

Display aspect ratio                     : 16:9

Frame rate mode                          : Variable

Frame rate                               : 23.976 FPS

Color space                              : YUV

Chroma subsampling                       : 4:2:0

Bit depth                                : 10 bits

Bits/(Pixel*Frame)                       : 0.073

Stream size                              : 3.62 GiB (78%)

Title                                    : Encoded by Goki for TAoE using Hiru V1.2

Writing library                          : x265 3.2+35-acc5d16999e2:[Windows][GCC 9.2.1][64 bit] 10bit

Encoding settings                        : cpuid=1111039 / frame-threads=4 / numa-pools=24 / wpp / no-pmode / no-pme / no-psnr / no-ssim / log-level=2 / input-csp=1 / input-res=1920x1080 / interlace=0 / total-frames=0 / level-idc=0 / high-tier=1 / uhd-bd=0 / ref=4 / no-allow-non-conformance / no-repeat-headers / annexb / no-aud / no-hrd / info / hash=0 / no-temporal-layers / open-gop / min-keyint=23 / keyint=250 / gop-lookahead=0 / bframes=8 / b-adapt=2 / b-pyramid / bframe-bias=0 / rc-lookahead=80 / lookahead-slices=4 / scenecut=40 / hist-scenecut=0 / radl=0 / no-splice / no-intra-refresh / ctu=64 / min-cu-size=8 / no-rect / no-amp / max-tu-size=32 / tu-inter-depth=1 / tu-intra-depth=1 / limit-tu=0 / rdoq-level=2 / dynamic-rd=0.00 / no-ssim-rd / signhide / no-tskip / nr-intra=0 / nr-inter=0 / no-constrained-intra / no-strong-intra-smoothing / max-merge=3 / limit-refs=3 / limit-modes / me=3 / subme=5 / merange=57 / temporal-mvp / no-frame-dup / no-hme / weightp / no-weightb / no-analyze-src-pics / deblock=0:0 / sao / no-sao-non-deblock / rd=4 / selective-sao=4 / no-early-skip / rskip / no-fast-intra / no-tskip-fast / no-cu-lossless / no-b-intra / no-splitrd-skip / rdpenalty=0 / psy-rd=1.30 / psy-rdoq=2.00 / no-rd-refine / no-lossless / cbqpoffs=0 / crqpoffs=0 / rc=crf / crf=17.0 / qcomp=0.60 / qpstep=4 / stats-write=0 / stats-read=0 / ipratio=1.40 / pbratio=1.30 / aq-mode=4 / aq-strength=1.10 / cutree / zone-count=0 / no-strict-cbr / qg-size=32 / no-rc-grain / qpmax=69 / qpmin=0 / no-const-vbv / sar=1 / overscan=0 / videoformat=5 / range=0 / colorprim=2 / transfer=2 / colormatrix=2 / chromaloc=0 / display-window=0 / cll=0,0 / min-luma=0 / max-luma=1023 / log2-max-poc-lsb=8 / vui-timing-info / vui-hrd-info / slices=1 / no-opt-qp-pps / no-opt-ref-list-length-pps / no-multi-pass-opt-rps / scenecut-bias=0.05 / hist-threshold=0.01 / no-opt-cu-delta-qp / no-aq-motion / no-hdr10 / no-hdr10-opt / no-dhdr10-opt / no-idr-recovery-sei / analysis-reuse-level=0 / analysis-save-reuse-level=0 / analysis-load-reuse-level=0 / scale-factor=0 / refine-intra=0 / refine-inter=0 / refine-mv=1 / refine-ctu-distortion=0 / no-limit-sao / ctu-info=0 / no-lowpass-dct / refine-analysis-type=0 / copy-pic=1 / max-ausize-factor=1.0 / no-dynamic-refine / no-single-sei / no-hevc-aq / no-svt / no-field / qp-adaptation-range=1.00 / no-scenecut-aware-qpconformance-window-offsets / right=0 / bottom=0

Language                                 : English

Default                                  : Yes

Forced                                   : No

Color range                              : Limited



Audio #1

ID                                       : 2

Format                                   : E-AC-3

Format/Info                              : Enhanced AC-3

Commercial name                          : Dolby Digital Plus

Codec ID                                 : A_EAC3

Duration                                 : 2 h 22 min

Bit rate mode                            : Constant

Bit rate                                 : 448 kb/s

Channel(s)                               : 6 channels

Channel layout                           : L R C LFE Ls Rs

Sampling rate                            : 48.0 kHz

Frame rate                               : 31.250 FPS (1536 SPF)

Bit depth                                : 24 bits

Compression mode                         : Lossy

Stream size                              : 457 MiB (10%)

Writing library                          : Lavc58.54.100 eac3

Language                                 : English

Service kind                             : Complete Main

Default                                  : Yes

Forced                                   : No



Audio #2

ID                                       : 3

Format                                   : E-AC-3

Format/Info                              : Enhanced AC-3

Commercial name                          : Dolby Digital Plus

Codec ID                                 : A_EAC3

Duration                                 : 2 h 22 min

Bit rate mode                            : Constant

Bit rate                                 : 192 kb/s

Channel(s)                               : 2 channels

Channel layout                           : L R

Sampling rate                            : 48.0 kHz

Frame rate                               : 31.250 FPS (1536 SPF)

Bit depth                                : 32 bits

Compression mode                         : Lossy

Stream size                              : 196 MiB (4%)

Title                                    : Commentary

Writing library                          : Lavc58.54.100 eac3

Language                                 : English

Service kind                             : Complete Main

Default                                  : No

Forced                                   : No



Audio #3

ID                                       : 4

Format                                   : E-AC-3

Format/Info                              : Enhanced AC-3

Commercial name                          : Dolby Digital Plus

Codec ID                                 : A_EAC3

Duration                                 : 2 h 22 min

Bit rate mode                            : Constant

Bit rate                                 : 192 kb/s

Channel(s)                               : 2 channels

Channel layout                           : L R

Sampling rate                            : 48.0 kHz

Frame rate                               : 31.250 FPS (1536 SPF)

Bit depth                                : 32 bits

Compression mode                         : Lossy

Stream size                              : 196 MiB (4%)

Title                                    : Commentary

Writing library                          : Lavc58.54.100 eac3

Language                                 : English

Service kind                             : Complete Main

Default                                  : No

Forced                                   : No



Text #1

ID                                       : 5

Format                                   : UTF-8

Codec ID                                 : S_TEXT/UTF8

Codec ID/Info                            : UTF-8 Plain Text

Duration                                 : 2 h 11 min

Bit rate                                 : 42 b/s

Count of elements                        : 1193

Stream size                              : 40.8 KiB (0%)

Title                                    : English-SRT

Language                                 : English

Default                                  : No

Forced                                   : No



Text #2

ID                                       : 6

Format                                   : UTF-8

Codec ID                                 : S_TEXT/UTF8

Codec ID/Info                            : UTF-8 Plain Text

Duration                                 : 2 h 13 min

Bit rate                                 : 44 b/s

Count of elements                        : 1327

Stream size                              : 43.5 KiB (0%)

Title                                    : English-SDH-SRT

Language                                 : English

Default                                  : No

Forced                                   : No



Text #3

ID                                       : 7

Format                                   : PGS

Codec ID                                 : S_HDMV/PGS

Codec ID/Info                            : Picture based subtitle format used on BDs/HD-DVDs

Duration                                 : 2 h 13 min

Bit rate                                 : 28.8 kb/s

Count of elements                        : 2654

Stream size                              : 27.5 MiB (1%)

Title                                    : English-PGS

Language                                 : English

Default                                  : No

Forced                                   : No



Text #4

ID                                       : 8

Format                                   : PGS

Codec ID                                 : S_HDMV/PGS

Codec ID/Info                            : Picture based subtitle format used on BDs/HD-DVDs

Duration                                 : 2 h 15 min

Bit rate                                 : 73.3 kb/s

Count of elements                        : 4690

Stream size                              : 71.1 MiB (2%)

Title                                    : English-COMMENTARY-PGS

Language                                 : English

Default                                  : No

Forced                                   : No



Text #5

ID                                       : 9

Format                                   : PGS

Codec ID                                 : S_HDMV/PGS

Codec ID/Info                            : Picture based subtitle format used on BDs/HD-DVDs

Duration                                 : 2 h 15 min

Bit rate                                 : 67.2 kb/s

Count of elements                        : 4252

Stream size                              : 65.0 MiB (1%)

Title                                    : English-COMMENTARY-PGS

Language                                 : English

Default                                  : No

Forced                                   : No



Menu

00:00:00.000                             : :Chapter 01

00:00:24.107                             : :Chapter 02

00:01:50.819                             : :Chapter 03

00:04:22.762                             : :Chapter 04

00:07:01.003                             : :Chapter 05

00:10:29.462                             : :Chapter 06

00:14:20.568                             : :Chapter 07

00:21:35.961                             : :Chapter 08

00:24:49.404                             : :Chapter 09

00:29:46.826                             : :Chapter 10

00:31:34.100                             : :Chapter 11

00:33:49.402                             : :Chapter 12

00:34:51.464                             : :Chapter 13

00:36:05.580                             : :Chapter 14

00:38:26.929                             : :Chapter 15

00:39:26.364                             : :Chapter 16

00:40:56.912                             : :Chapter 17

00:42:13.447                             : :Chapter 18

00:44:02.306                             : :Chapter 19

00:45:51.623                             : :Chapter 20

00:47:50.993                             : :Chapter 21

00:50:21.518                             : :Chapter 22

00:53:02.512                             : :Chapter 23

00:56:45.610                             : :Chapter 24

00:58:57.033                             : :Chapter 25

01:00:46.851                             : :Chapter 26

01:03:42.276                             : :Chapter 27

01:06:24.939                             : :Chapter 28

01:11:19.650                             : :Chapter 29

01:14:02.020                             : :Chapter 30

01:15:24.353                             : :Chapter 31

01:17:49.164                             : :Chapter 32

01:21:41.271                             : :Chapter 33

01:23:48.064                             : :Chapter 34

01:28:10.994                             : :Chapter 35

01:30:54.031                             : :Chapter 36

01:33:39.655                             : :Chapter 37

01:35:28.514                             : :Chapter 38

01:42:45.200                             : :Chapter 39

01:45:14.683                             : :Chapter 40

01:49:54.296                             : :Chapter 41

01:56:23.142                             : :Chapter 42

01:57:48.269                             : :Chapter 43

02:00:29.847                             : :Chapter 44

02:04:49.648                             : :Chapter 45

02:07:42.613                             : :Chapter 46

02:11:24.877                             : :Chapter 47

02:12:55.717                             : :Chapter 48

02:14:49.915                             : :Chapter 49

02:15:55.605                             : :Chapter 50



Source Information



General

Unique ID                                : 314791643529598820392624605389405221585 (0xECD2AA4DEEABE210059216067FEAF2D1)

Complete name                            : Star.Wars.Episode.II.Attack.of.the.Clones.2002.REMASTERED.1080p.BluRay.REMUX.AVC.DTS-HD.MA.TrueHD.7.1.Atmos-FGT.mkv

Format                                   : Matroska

Format version                           : Version 4

File size                                : 42.5 GiB

Duration                                 : 2 h 22 min

Overall bit rate mode                    : Variable

Overall bit rate                         : 42.7 Mb/s

Movie name                               : Star.Wars.Episode.II.Attack.of.the.Clones.2002.REMASTERED.1080p.BluRay.REMUX.AVC.DTS-HD.MA.TrueHD.7.1.Atmos-FGT

Encoded date                             : UTC 2020-05-03 11:38:00

Writing application                      : mkvmerge v46.0.0 ('No Deeper Escape') 64-bit

Writing library                          : libebml v1.3.10 + libmatroska v1.5.2

Cover                                    : Yes

Attachments                              : cover_land.jpg / small_cover.jpg / small_cover_land.jpg / cover.jpg / cover_land.jpg / small_cover.jpg / small_cover_land.jpg / cover.jpg



Video

ID                                       : 1

ID in the original source medium         : 4113 (0x1011)

Format                                   : AVC

Format/Info                              : Advanced Video Codec

Format profile                           : [email protected]

Format settings                          : CABAC / 4 Ref Frames

Format settings, CABAC                   : Yes

Format settings, Reference frames        : 4 frames

Codec ID                                 : V_MPEG4/ISO/AVC

Duration                                 : 2 h 22 min

Bit rate mode                            : Variable

Bit rate                                 : 30.2 Mb/s

Maximum bit rate                         : 36.0 Mb/s

Width                                    : 1 920 pixels

Height                                   : 1 080 pixels

Display aspect ratio                     : 16:9

Frame rate mode                          : Constant

Frame rate                               : 23.976 (24000/1001) FPS

Color space                              : YUV

Chroma subsampling                       : 4:2:0

Bit depth                                : 8 bits

Scan type                                : Progressive

Bits/(Pixel*Frame)                       : 0.607

Stream size                              : 30.0 GiB (71%)

Title                                    : Star.Wars.Episode.II.Attack.of.the.Clones.2002.REMASTERED.1080p.BluRay.REMUX.AVC.DTS-HD.MA.TrueHD.7.1.Atmos-FGT

Language                                 : English

Default                                  : No

Forced                                   : No

Original source medium                   : Blu-ray



Audio #1

ID                                       : 2

Format                                   : MLP FBA 16-ch

Format/Info                              : Meridian Lossless Packing FBA with 16-channel presentation

Commercial name                          : Dolby TrueHD with Dolby Atmos

Codec ID                                 : A_TRUEHD

Duration                                 : 2 h 22 min

Bit rate mode                            : Variable

Bit rate                                 : 4 363 kb/s

Maximum bit rate                         : 6 249 kb/s

Channel(s)                               : 8 channels

Channel layout                           : L R C LFE Ls Rs Lb Rb

Sampling rate                            : 48.0 kHz

Frame rate                               : 1 200.000 FPS (40 SPF)

Compression mode                         : Lossless

Stream size                              : 4.34 GiB (10%)

Title                                    : Star.Wars.Episode.II.Attack.of.the.Clones.2002.REMASTERED.1080p.BluRay.REMUX.AVC.DTS-HD.MA.TrueHD.7.1.Atmos-FGT

Language                                 : English

Default                                  : Yes

Forced                                   : No

Number of dynamic objects                : 13

Bed channel count                        : 1 channel

Bed channel configuration                : LFE



Audio #2

ID                                       : 3

ID in the original source medium         : 4352 (0x1100)

Format                                   : DTS XLL

Format/Info                              : Digital Theater Systems

Commercial name                          : DTS-HD Master Audio

Codec ID                                 : A_DTS

Duration                                 : 2 h 22 min

Bit rate mode                            : Variable

Bit rate                                 : 4 463 kb/s

Channel(s)                               : 8 channels

Channel layout                           : C L R LFE Lb Rb Lss Rss

Sampling rate                            : 48.0 kHz

Frame rate                               : 93.750 FPS (512 SPF)

Bit depth                                : 24 bits

Compression mode                         : Lossless

Stream size                              : 4.44 GiB (10%)

Title                                    : Star.Wars.Episode.II.Attack.of.the.Clones.2002.REMASTERED.1080p.BluRay.REMUX.AVC.DTS-HD.MA.TrueHD.7.1.Atmos-FGT

Language                                 : English

Default                                  : No

Forced                                   : No

Original source medium                   : Blu-ray



Audio #3

ID                                       : 4

Format                                   : AC-3

Format/Info                              : Audio Coding 3

Commercial name                          : Dolby Digital

Codec ID                                 : A_AC3

Duration                                 : 2 h 22 min

Bit rate mode                            : Constant

Bit rate                                 : 640 kb/s

Channel(s)                               : 6 channels

Channel layout                           : L R C LFE Ls Rs

Sampling rate                            : 48.0 kHz

Frame rate                               : 31.250 FPS (1536 SPF)

Compression mode                         : Lossy

Stream size                              : 652 MiB (2%)

Title                                    : Star.Wars.Episode.II.Attack.of.the.Clones.2002.REMASTERED.1080p.BluRay.REMUX.AVC.DTS-HD.MA.TrueHD.7.1.Atmos-FGT

Language                                 : English

Service kind                             : Complete Main

Default                                  : No

Forced                                   : No



Audio #4

ID                                       : 5

Format                                   : E-AC-3

Format/Info                              : Enhanced AC-3

Commercial name                          : Dolby Digital Plus

Format profile                           : Blu-ray Disc

Codec ID                                 : A_EAC3

Duration                                 : 2 h 22 min

Bit rate mode                            : Constant

Bit rate                                 : 896 kb/s

Channel(s)                               : 8 channels

Channel layout                           : L R C LFE Ls Rs Lb Rb

Sampling rate                            : 48.0 kHz

Frame rate                               : 31.250 FPS (1536 SPF)

Compression mode                         : Lossy

Stream size                              : 913 MiB (2%)

Title                                    : Star.Wars.Episode.II.Attack.of.the.Clones.2002.REMASTERED.1080p.BluRay.REMUX.AVC.DTS-HD.MA.TrueHD.7.1.Atmos-FGT

Language                                 : German

Service kind                             : Complete Main

Default                                  : No

Forced                                   : No



Audio #5

ID                                       : 6

ID in the original source medium         : 4354 (0x1102)

Format                                   : DTS ES

Format/Info                              : Digital Theater Systems

Commercial name                          : DTS-ES Matrix

Codec ID                                 : A_DTS

Duration                                 : 2 h 22 min

Bit rate mode                            : Constant

Bit rate                                 : 1 509 kb/s

Channel(s)                               : 6 channels

Channel(s)_Original                      : 7 channels

ChannelLayout_Original                   : C L R Ls Rs Cs LFE

Sampling rate                            : 48.0 kHz

Frame rate                               : 93.750 FPS (512 SPF)

Bit depth                                : 24 bits

Compression mode                         : Lossy

Stream size                              : 1.50 GiB (4%)

Title                                    : Star.Wars.Episode.II.Attack.of.the.Clones.2002.REMASTERED.1080p.BluRay.REMUX.AVC.DTS-HD.MA.TrueHD.7.1.Atmos-FGT

Language                                 : Italian

Default                                  : No

Forced                                   : No

Original source medium                   : Blu-ray



Audio #6

ID                                       : 7

ID in the original source medium         : 4355 (0x1103)

Format                                   : AC-3

Format/Info                              : Audio Coding 3

Commercial name                          : Dolby Digital

Codec ID                                 : A_AC3

Duration                                 : 2 h 22 min

Bit rate mode                            : Constant

Bit rate                                 : 192 kb/s

Channel(s)                               : 2 channels

Channel layout                           : L R

Sampling rate                            : 48.0 kHz

Frame rate                               : 31.250 FPS (1536 SPF)

Compression mode                         : Lossy

Stream size                              : 196 MiB (0%)

Title                                    : Star.Wars.Episode.II.Attack.of.the.Clones.2002.REMASTERED.1080p.BluRay.REMUX.AVC.DTS-HD.MA.TrueHD.7.1.Atmos-FGT

Language                                 : English

Service kind                             : Complete Main

Default                                  : No

Forced                                   : No

Original source medium                   : Blu-ray



Audio #7

ID                                       : 8

ID in the original source medium         : 4356 (0x1104)

Format                                   : AC-3

Format/Info                              : Audio Coding 3

Commercial name                          : Dolby Digital

Codec ID                                 : A_AC3

Duration                                 : 2 h 22 min

Bit rate mode                            : Constant

Bit rate                                 : 192 kb/s

Channel(s)                               : 2 channels

Channel layout                           : L R

Sampling rate                            : 48.0 kHz

Frame rate                               : 31.250 FPS (1536 SPF)

Compression mode                         : Lossy

Stream size                              : 196 MiB (0%)

Title                                    : Star.Wars.Episode.II.Attack.of.the.Clones.2002.REMASTERED.1080p.BluRay.REMUX.AVC.DTS-HD.MA.TrueHD.7.1.Atmos-FGT

Language                                 : English

Service kind                             : Complete Main

Default                                  : No

Forced                                   : No

Original source medium                   : Blu-ray



Text #1

ID                                       : 9

Format                                   : UTF-8

Codec ID                                 : S_TEXT/UTF8

Codec ID/Info                            : UTF-8 Plain Text

Duration                                 : 2 h 11 min

Bit rate                                 : 42 b/s

Count of elements                        : 1193

Stream size                              : 40.8 KiB (0%)

Title                                    : English-SRT

Language                                 : English

Default                                  : Yes

Forced                                   : No



Text #2

ID                                       : 10

Format                                   : UTF-8

Codec ID                                 : S_TEXT/UTF8

Codec ID/Info                            : UTF-8 Plain Text

Duration                                 : 2 h 13 min

Bit rate                                 : 44 b/s

Count of elements                        : 1327

Stream size                              : 43.5 KiB (0%)

Title                                    : English-SDH-SRT

Language                                 : English

Default                                  : No

Forced                                   : No



Text #3

ID                                       : 11

ID in the original source medium         : 4608 (0x1200)

Format                                   : PGS

Muxing mode                              : zlib

Codec ID                                 : S_HDMV/PGS

Codec ID/Info                            : Picture based subtitle format used on BDs/HD-DVDs

Duration                                 : 2 h 13 min

Bit rate                                 : 28.8 kb/s

Count of elements                        : 2654

Stream size                              : 27.5 MiB (0%)

Title                                    : English-PGS

Language                                 : English

Default                                  : No

Forced                                   : No

Original source medium                   : Blu-ray



Text #4

ID                                       : 12

ID in the original source medium         : 4609 (0x1201)

Format                                   : PGS

Muxing mode                              : zlib

Codec ID                                 : S_HDMV/PGS

Codec ID/Info                            : Picture based subtitle format used on BDs/HD-DVDs

Duration                                 : 2 h 13 min

Bit rate                                 : 31.3 kb/s

Count of elements                        : 2370

Stream size                              : 29.9 MiB (0%)

Title                                    : German-PGS

Language                                 : German

Default                                  : No

Forced                                   : No

Original source medium                   : Blu-ray



Text #5

ID                                       : 13

ID in the original source medium         : 4610 (0x1202)

Format                                   : PGS

Muxing mode                              : zlib

Codec ID                                 : S_HDMV/PGS

Codec ID/Info                            : Picture based subtitle format used on BDs/HD-DVDs

Duration                                 : 2 h 13 min

Bit rate                                 : 27.5 kb/s

Count of elements                        : 2462

Stream size                              : 26.3 MiB (0%)

Title                                    : Italian-PGS

Language                                 : Italian

Default                                  : No

Forced                                   : No

Original source medium                   : Blu-ray



Text #6

ID                                       : 14

ID in the original source medium         : 4611 (0x1203)

Format                                   : PGS

Muxing mode                              : zlib

Codec ID                                 : S_HDMV/PGS

Codec ID/Info                            : Picture based subtitle format used on BDs/HD-DVDs

Duration                                 : 2 h 13 min

Bit rate                                 : 25.1 kb/s

Count of elements                        : 2176

Stream size                              : 23.9 MiB (0%)

Title                                    : Danish-PGS

Language                                 : Danish

Default                                  : No

Forced                                   : No

Original source medium                   : Blu-ray



Text #7

ID                                       : 15

ID in the original source medium         : 4612 (0x1204)

Format                                   : PGS

Muxing mode                              : zlib

Codec ID                                 : S_HDMV/PGS

Codec ID/Info                            : Picture based subtitle format used on BDs/HD-DVDs

Duration                                 : 2 h 13 min

Bit rate                                 : 22.4 kb/s

Count of elements                        : 2378

Stream size                              : 21.4 MiB (0%)

Title                                    : Finnish-PGS

Language                                 : Finnish

Default                                  : No

Forced                                   : No

Original source medium                   : Blu-ray



Text #8

ID                                       : 16

ID in the original source medium         : 4613 (0x1205)

Format                                   : PGS

Muxing mode                              : zlib

Codec ID                                 : S_HDMV/PGS

Codec ID/Info                            : Picture based subtitle format used on BDs/HD-DVDs

Duration                                 : 2 h 13 min

Bit rate                                 : 22.8 kb/s

Count of elements                        : 2154

Stream size                              : 21.8 MiB (0%)

Title                                    : Norwegian-PGS

Language                                 : Norwegian

Default                                  : No

Forced                                   : No

Original source medium                   : Blu-ray



Text #9

ID                                       : 17

ID in the original source medium         : 4614 (0x1206)

Format                                   : PGS

Muxing mode                              : zlib

Codec ID                                 : S_HDMV/PGS

Codec ID/Info                            : Picture based subtitle format used on BDs/HD-DVDs

Duration                                 : 2 h 13 min

Bit rate                                 : 23.1 kb/s

Count of elements                        : 2082

Stream size                              : 22.1 MiB (0%)

Title                                    : Swedish-PGS

Language                                 : Swedish

Default                                  : No

Forced                                   : No

Original source medium                   : Blu-ray



Text #10

ID                                       : 18

ID in the original source medium         : 4615 (0x1207)

Format                                   : PGS

Muxing mode                              : zlib

Codec ID                                 : S_HDMV/PGS

Codec ID/Info                            : Picture based subtitle format used on BDs/HD-DVDs

Duration                                 : 2 h 15 min

Bit rate                                 : 73.3 kb/s

Count of elements                        : 4690

Stream size                              : 71.1 MiB (0%)

Title                                    : English-COMMENTARY-PGS

Language                                 : English

Default                                  : No

Forced                                   : No

Original source medium                   : Blu-ray



Text #11

ID                                       : 19

ID in the original source medium         : 4616 (0x1208)

Format                                   : PGS

Muxing mode                              : zlib

Codec ID                                 : S_HDMV/PGS

Codec ID/Info                            : Picture based subtitle format used on BDs/HD-DVDs

Duration                                 : 2 h 15 min

Bit rate                                 : 77.9 kb/s

Count of elements                        : 4772

Stream size                              : 75.5 MiB (0%)

Title                                    : German-COMMENTARY-PGS

Language                                 : German

Default                                  : No

Forced                                   : No

Original source medium                   : Blu-ray



Text #12

ID                                       : 20

ID in the original source medium         : 4617 (0x1209)

Format                                   : PGS

Muxing mode                              : zlib

Codec ID                                 : S_HDMV/PGS

Codec ID/Info                            : Picture based subtitle format used on BDs/HD-DVDs

Duration                                 : 2 h 15 min

Bit rate                                 : 67.3 kb/s

Count of elements                        : 4598

Stream size                              : 65.3 MiB (0%)

Title                                    : italian-COMMENTARY-PGS

Language                                 : Italian

Default                                  : No

Forced                                   : No

Original source medium                   : Blu-ray



Text #13

ID                                       : 21

ID in the original source medium         : 4618 (0x120A)

Format                                   : PGS

Muxing mode                              : zlib

Codec ID                                 : S_HDMV/PGS

Codec ID/Info                            : Picture based subtitle format used on BDs/HD-DVDs

Duration                                 : 2 h 15 min

Bit rate                                 : 67.2 kb/s

Count of elements                        : 4252

Stream size                              : 65.0 MiB (0%)

Title                                    : English-COMMENTARY-PGS

Language                                 : English

Default                                  : No

Forced                                   : No

Original source medium                   : Blu-ray



Text #14

ID                                       : 22

ID in the original source medium         : 4619 (0x120B)

Format                                   : PGS

Muxing mode                              : zlib

Codec ID                                 : S_HDMV/PGS

Codec ID/Info                            : Picture based subtitle format used on BDs/HD-DVDs

Duration                                 : 2 h 15 min

Bit rate                                 : 65.9 kb/s

Count of elements                        : 4122

Stream size                              : 63.7 MiB (0%)

Title                                    : German-COMMENTARY-PGS

Language                                 : German

Default                                  : No

Forced                                   : No

Original source medium                   : Blu-ray



Text #15

ID                                       : 23

ID in the original source medium         : 4620 (0x120C)

Format                                   : PGS

Muxing mode                              : zlib

Codec ID                                 : S_HDMV/PGS

Codec ID/Info                            : Picture based subtitle format used on BDs/HD-DVDs

Duration                                 : 2 h 15 min

Bit rate                                 : 56.2 kb/s

Count of elements                        : 3752

Stream size                              : 54.3 MiB (0%)

Title                                    : italian-COMMENTARY-PGS

Language                                 : Italian

Default                                  : No

Forced                                   : No

Original source medium                   : Blu-ray



Text #16

ID                                       : 24

ID in the original source medium         : 4621 (0x120D)

Format                                   : PGS

Muxing mode                              : zlib

Codec ID                                 : S_HDMV/PGS

Codec ID/Info                            : Picture based subtitle format used on BDs/HD-DVDs

Duration                                 : 2 h 1 min

Bit rate                                 : 472 b/s

Count of elements                        : 52

Stream size                              : 419 KiB (0%)

Title                                    : German-FORCED-PGS

Language                                 : German

Default                                  : No

Forced                                   : No

Original source medium                   : Blu-ray



Text #17

ID                                       : 25

ID in the original source medium         : 4622 (0x120E)

Format                                   : PGS

Muxing mode                              : zlib

Codec ID                                 : S_HDMV/PGS

Codec ID/Info                            : Picture based subtitle format used on BDs/HD-DVDs

Duration                                 : 2 h 1 min

Bit rate                                 : 427 b/s

Count of elements                        : 50

Stream size                              : 379 KiB (0%)

Title                                    : Italian-FORCED-PGS

Language                                 : Italian

Default                                  : No

Forced                                   : No

Original source medium                   : Blu-ray



Menu

00:00:00.000                             : en:Chapter 01

00:00:24.107                             : en:Chapter 02

00:01:50.819                             : en:Chapter 03

00:04:22.762                             : en:Chapter 04

00:07:01.003                             : en:Chapter 05

00:10:29.462                             : en:Chapter 06

00:14:20.568                             : en:Chapter 07

00:21:35.961                             : en:Chapter 08

00:24:49.404                             : en:Chapter 09

00:29:46.826                             : en:Chapter 10

00:31:34.100                             : en:Chapter 11

00:33:49.402                             : en:Chapter 12

00:34:51.464                             : en:Chapter 13

00:36:05.580                             : en:Chapter 14

00:38:26.929                             : en:Chapter 15

00:39:26.364                             : en:Chapter 16

00:40:56.912                             : en:Chapter 17

00:42:13.447                             : en:Chapter 18

00:44:02.306                             : en:Chapter 19

00:45:51.623                             : en:Chapter 20

00:47:50.993                             : en:Chapter 21

00:50:21.518                             : en:Chapter 22

00:53:02.512                             : en:Chapter 23

00:56:45.610                             : en:Chapter 24

00:58:57.033                             : en:Chapter 25

01:00:46.851                             : en:Chapter 26

01:03:42.276                             : en:Chapter 27

01:06:24.939                             : en:Chapter 28

01:11:19.650                             : en:Chapter 29

01:14:02.020                             : en:Chapter 30

01:15:24.353                             : en:Chapter 31

01:17:49.164                             : en:Chapter 32

01:21:41.271                             : en:Chapter 33

01:23:48.064                             : en:Chapter 34

01:28:10.994                             : en:Chapter 35

01:30:54.031                             : en:Chapter 36

01:33:39.655                             : en:Chapter 37

01:35:28.514                             : en:Chapter 38

01:42:45.200                             : en:Chapter 39

01:45:14.683                             : en:Chapter 40

01:49:54.296                             : en:Chapter 41

01:56:23.142                             : en:Chapter 42

01:57:48.269                             : en:Chapter 43

02:00:29.847                             : en:Chapter 44

02:04:49.648                             : en:Chapter 45

02:07:42.613                             : en:Chapter 46

02:11:24.877                             : en:Chapter 47

02:12:55.717                             : en:Chapter 48

02:14:49.915                             : en:Chapter 49

02:15:55.605                             : en:Chapter 50



Hello everyone,

We are TAoE, a small team of passionate encoders who love encoding. We try our best to provide you with high quality releases.



Requests for movies and shows are welcome.

We have a form for encode requests which can be found here

Encode requests form

submit your request and it will be added to our encoding request list

You can view our encoding request list here

Encode requests list





When or if we encode it will depend on if we can obtain a good source to encode with and

if one of the TAoE encoders chooses to encode it. Unfortunately we are not able to encode everything,

new members are welcome as that helps us encode more content!



If you would like to join TAoE submit your request here!

TAoE member applications form











.........................................................................................................................................

Discussion

Comments 0

Post Your Comment

Files in this torrent

FILENAMESIZE
Star Wars Episode II - Attack of the Clones (2002) REMASTERED (1080p BDRip x265 10bit EAC3 5.1 - Goki)[TAoE]-banner.jpg127 KB
Star Wars Episode II - Attack of the Clones (2002) REMASTERED (1080p BDRip x265 10bit EAC3 5.1 - Goki)[TAoE]-clearart.png654.8 KB
Star Wars Episode II - Attack of the Clones (2002) REMASTERED (1080p BDRip x265 10bit EAC3 5.1 - Goki)[TAoE]-clearlogo.png132.5 KB
Star Wars Episode II - Attack of the Clones (2002) REMASTERED (1080p BDRip x265 10bit EAC3 5.1 - Goki)[TAoE]-disc.png1.1 MB
Star Wars Episode II - Attack of the Clones (2002) REMASTERED (1080p BDRip x265 10bit EAC3 5.1 - Goki)[TAoE]-fanart.jpg510.8 KB
Star Wars Episode II - Attack of the Clones (2002) REMASTERED (1080p BDRip x265 10bit EAC3 5.1 - Goki)[TAoE]-keyart.jpg356.9 KB
Star Wars Episode II - Attack of the Clones (2002) REMASTERED (1080p BDRip x265 10bit EAC3 5.1 - Goki)[TAoE]-logo.png132.5 KB
Star Wars Episode II - Attack of the Clones (2002) REMASTERED (1080p BDRip x265 10bit EAC3 5.1 - Goki)[TAoE]-poster.jpg206.4 KB
Star Wars Episode II - Attack of the Clones (2002) REMASTERED (1080p BDRip x265 10bit EAC3 5.1 - Goki)[TAoE]-thumb.jpg348.6 KB
Star Wars Episode II - Attack of the Clones (2002) REMASTERED (1080p BDRip x265 10bit EAC3 5.1 - Goki)[TAoE].mkv4.6 GB
Star Wars Episode II - Attack of the Clones (2002) REMASTERED (1080p BDRip x265 10bit EAC3 5.1 - Goki)[TAoE].nfo27.8 KB

Alternative Torrents for 'Star Wars Episode II Attack of Clones REMASTERED bit EAC Goki'.

There are no alternative torrents found.