Weathering With You 2019 JAPANESE 2160p BluRay REMUX HEVC DTS-HD MA 5.1-FGT

Torrent Details

Weathering with You 2019 JAPANESE 2160p BluRay REMUX HEVC DTS-HD MA 5.1<span style=color:#fc9c6d>-FGT</span>Weathering with You 2019 JAPANESE 2160p BluRay REMUX HEVC DTS-HD MA 5.1<span style=color:#fc9c6d>-FGT</span>

NAME
Weathering with You 2019 JAPANESE 2160p BluRay REMUX HEVC DTS-HD MA 5.1-FGT.torrent
CATEGORY
Anime
INFOHASH
d2474bfed7e31f6dcab02b00987d8b5cc7006d68
SIZE
48.4 GB in 2 files
ADDED
Uploaded on 28-05-2020 by our crawler pet called "Spidey".
SWARM
0 seeders & 0 peers
RATING
No votes yet.

Please login to vote for this torrent.


Description

Who was it that asked for 4k release? Video ID : 1 ID in the original source medium : 4113 (0x1011) Format : HEVC Format/Info : High Efficiency Video Coding Format profile : Main [email protected]@High HDR format : SMPTE ST 2086, HDR10 compatible Codec ID : V_MPEGH/ISO/HEVC Duration : 1 h 52 min Bit rate : 52.6 Mb/s Width : 3 840 pixels Height : 2 160 pixels Display aspect ratio : 16:9 Frame rate mode : Constant Frame rate : 23.976 (24000/1001) FPS Color space : YUV Chroma subsampling : 4:2:0 (Type 2) Bit depth : 10 bits Bits/(Pixel*Frame) : 0.264 Stream size : 41.2 GiB (85%) Title : Weathering.with.You.2019.JAPANESE.2160p.BluRay.REMUX.HEVC.DTS-HD.MA.5.1-FGT Language : English Default : No Forced : No Color range : Limited Color primaries : BT.2020 Transfer characteristics : PQ Matrix coefficients : BT.2020 non-constant Mastering display color primaries : BT.2020 Mastering display luminance : min: 0.0000 cd/m2, max: 1000 cd/m2 Maximum Content Light Level : 992 cd/m2 Maximum Frame-Average Light Level : 772 cd/m2 Original source medium : Blu-ray Audio #1 ID : 2 ID in the original source medium : 4352 (0x1100) Format : DTS XLL Format/Info : Digital Theater Systems Commercial name : DTS-HD Master Audio Codec ID : A_DTS Duration : 1 h 52 min Bit rate mode : Variable Bit rate : 3 557 kb/s Channel(s) : 6 channels Channel layout : C L R Ls Rs LFE Sampling rate : 48.0 kHz Frame rate : 93.750 FPS (512 SPF) Bit depth : 24 bits Compression mode : Lossless Stream size : 2.79 GiB (6%) Title : Weathering.with.You.2019.JAPANESE.2160p.BluRay.REMUX.HEVC.DTS-HD.MA.5.1-FGT Language : Japanese Default : Yes Forced : No Original source medium : Blu-ray Audio #2 ID : 3 ID in the original source medium : 4353 (0x1101) Format : DTS XLL Format/Info : Digital Theater Systems Commercial name : DTS-HD Master Audio Codec ID : A_DTS Duration : 1 h 52 min Bit rate mode : Variable Bit rate : 2 043 kb/s Channel(s) : 2 channels Channel layout : L R Sampling rate : 48.0 kHz Frame rate : 93.750 FPS (512 SPF) Bit depth : 24 bits Compression mode : Lossless Stream size : 1.60 GiB (3%) Title : Weathering.with.You.2019.JAPANESE.2160p.BluRay.REMUX.HEVC.DTS-HD.MA.5.1-FGT Language : Japanese Default : No Forced : No Original source medium : Blu-ray Audio #3 ID : 4 ID in the original source medium : 4354 (0x1102) Format : DTS XLL Format/Info : Digital Theater Systems Commercial name : DTS-HD Master Audio Codec ID : A_DTS Duration : 1 h 52 min Bit rate mode : Variable Bit rate : 3 565 kb/s Channel(s) : 6 channels Channel layout : C L R Ls Rs LFE Sampling rate : 48.0 kHz Frame rate : 93.750 FPS (512 SPF) Bit depth : 24 bits Compression mode : Lossless Stream size : 2.79 GiB (6%) Title : Weathering.with.You.2019.JAPANESE.2160p.BluRay.REMUX.HEVC.DTS-HD.MA.5.1-FGT Language : Japanese Default : No Forced : No Original source medium : Blu-ray Text #1 ID : 5 Format : UTF-8 Codec ID : S_TEXT/UTF8 Codec ID/Info : UTF-8 Plain Text Duration : 1 h 51 min Bit rate : 65 b/s Count of elements : 1703 Stream size : 53.6 KiB (0%) Title : English-SRT Language : English Default : Yes Forced : No Text #2 ID : 6 ID in the original source medium : 4768 (0x12A0) Format : PGS Muxing mode : zlib Codec ID : S_HDMV/PGS Codec ID/Info : Picture based subtitle format used on BDs/HD-DVDs Duration : 1 h 51 min Bit rate : 42.8 kb/s Count of elements : 3506 Stream size : 34.1 MiB (0%) Title : Japanese-PGS Language : Japanese Default : No Forced : No Original source medium : Blu-ray Text #3 ID : 7 ID in the original source medium : 4769 (0x12A1) Format : PGS Muxing mode : zlib Codec ID : S_HDMV/PGS Codec ID/Info : Picture based subtitle format used on BDs/HD-DVDs Duration : 1 h 51 min Bit rate : 33.4 kb/s Count of elements : 3134 Stream size : 26.5 MiB (0%) Title : English-PGS Language : English Default : No Forced : No Original source medium : Blu-ray Text #4 ID : 8 ID in the original source medium : 4770 (0x12A2) Format : PGS Muxing mode : zlib Codec ID : S_HDMV/PGS Codec ID/Info : Picture based subtitle format used on BDs/HD-DVDs Duration : 1 h 50 min Bit rate : 30.6 kb/s Count of elements : 3462 Stream size : 24.3 MiB (0%) Title : Chinese-PGS Language : Chinese Default : No Forced : No Original source medium : Blu-ray Menu 00:00:00.000 : en:Chapter 01 00:03:52.232 : en:Chapter 02 00:07:13.057 : en:Chapter 03 00:11:51.293 : en:Chapter 04 00:17:26.795 : en:Chapter 05 00:19:46.351 : en:Chapter 06 00:22:25.260 : en:Chapter 07 00:26:07.691 : en:Chapter 08 00:30:07.972 : en:Chapter 09 00:34:27.982 : en:Chapter 10 00:38:29.682 : en:Chapter 11 00:41:36.243 : en:Chapter 12 00:44:05.893 : en:Chapter 13 00:47:59.126 : en:Chapter 14 00:52:11.253 : en:Chapter 15 00:55:55.852 : en:Chapter 16 00:58:46.773 : en:Chapter 17 01:01:42.532 : en:Chapter 18 01:05:18.247 : en:Chapter 19 01:08:55.923 : en:Chapter 20 01:13:53.178 : en:Chapter 21 01:16:58.322 : en:Chapter 22 01:19:57.584 : en:Chapter 23 01:23:15.573 : en:Chapter 24 01:25:48.226 : en:Chapter 25 01:28:51.117 : en:Chapter 26 01:33:02.868 : en:Chapter 27 01:38:32.907 : en:Chapter 28 01:43:29.244 : en:Chapter 29 01:47:40.579 : en:Chapter 30 01:52:12.600 : en:Chapter 31

Discussion

Comments 0

Post Your Comment

Files in this torrent

FILENAMESIZE
RARBG.txt31 B
Weathering.with.You.2019.JAPANESE.2160p.BluRay.REMUX.HEVC.DTS-HD.MA.5.1-FGT.mkv48.4 GB

Alternative Torrents for 'Weathering with You JAPANESE BluRay REMUX HEVC DTSHD MA'.

TORRENT NAMEADDEDSIZESEEDSPEERSHEALTH
6/18/20201.7 GB1893548
6/18/2020859 MB1613474
6/27/2020833 MB1407393
6/18/20201.7 GB1324265
6/27/20201.7 GB1249300
6/18/2020836 MB1190143
6/18/20201.8 GB869191
6/18/2020796 MB727117
6/18/20203.5 GB69476
6/25/2020898 MB677125
3/10/20182.4 GB67089
6/22/20201.4 GB54923
6/19/2020802 MB51949
Yesterday798 MB517239
Yesterday859 MB476291