Capone 2020 MVO 720p BluRay ExKinoRay

Torrent Details

Capone 2020 MVO 720p BluRay<span style=color:#fc9c6d> ExKinoRay</span>

NAME
Capone 2020 MVO 720p BluRay ExKinoRay.torrent
CATEGORY
Movies
INFOHASH
4fe1dbeaebca0cedf963f951ce1211c78ac80aae
SIZE
6.4 GB in 1 file
ADDED
Uploaded on 28-05-2020 by our crawler pet called "Spidey".
SWARM
0 seeders & 0 peers
RATING
No votes yet.

Please login to vote for this torrent.


Description

Название: Лицо со шрамом

Оригинальное название: Capone

Год выхода: 2020

Жанр: Драма, криминал, биография

Режиссер: Джош Транк

В ролях: Линда Карделлини, Том Харди, Ноэль Фишер, Кайл МакЛахлан, Мэтт Диллон, Кэтрин Нардуччи, Джек Лауден, Ал Сапиенза, Джино Кафарелли, Мэйсон Гуччионе



О фильме: Вернувшись из тюрьмы, Аль Капоне продолжает оставаться предметом пристального внимания ФБР. Ведь при аресте так и не была найдена крупная сумма денег — итог всей криминальной деятельности знаменитого мафиози. По всему дому расставлены жучки, под подозрением каждый член большой семьи Капоне. Удастся ли спецслужбам добиться от теряющего память гангстера информации, где и при каких обстоятельствах он спрятал деньги?









Страна: Канада, США

Студия: BRON Studios, A Band Apart, Addictive Pictures

Продолжительность: 01:43:52

Перевод: Профессиональный многоголосый | HDRezka Studio



Присутствует ненормативная лексика!



Без рекламы!



Формат: MKV

Качество: BDRip 720p

Видео: MPEG-4 AVC, 1280x534 (2.40:1), 23.976 fps, 7522 Kbps, 0.459 bit/pixel

Аудио #01: 48 kHz, AC3, 5.1, 448 Kbps | MVO | RUS |

Аудио #02: 48 kHz, AC3, 5.1, 640 Kbps | Оригинал | ENG |

Субтитры: Русские (Forced, Full (Focs)), английские





ОтчетМедиаИнфо

General

Unique ID : 182960789799778890310668483836473043916 (0x89A4F7642EB6D71297FF14113868EBCC)

Complete name : F:Capone.2020.MVO.720p.BluRay.ExKinoRay.mkv

Format : Matroska

Format version : Version 2

File size : 6.37 GiB

Duration : 1 h 43 min

Overall bit rate : 8 784 kb/s

Movie name : Capone 2020 from ExKinoRay

Encoded date : UTC 2020-05-25 03:08:25

Writing application : mkvmerge v5.6.0 ('Kenya Kane') built on May 27 2012 16:44:04

Writing library : libebml v1.2.3 + libmatroska v1.3.0



Video

ID : 1

Format : AVC

Format/Info : Advanced Video Codec

Format profile : [email protected]

Format settings, CABAC : Yes

Format settings, ReFrames : 12 frames

Codec ID : V_MPEG4/ISO/AVC

Duration : 1 h 43 min

Bit rate : 7 522 kb/s

Width : 1 280 pixels

Height : 534 pixels

Display aspect ratio : 2.40:1

Frame rate mode : Constant

Frame rate : 23.976 (24000/1001) FPS

Color space : YUV

Chroma subsampling : 4:2:0

Bit depth : 8 bits

Scan type : Progressive

Bits/(Pixel*Frame) : 0.459

Stream size : 5.46 GiB (86%)

Title : iFT

Writing library : x264 core 160 r3000+55 ~ Encoded by Mocunaman in Portugal

Encoding settings : cabac=1 / ref=12 / deblock=1:-3:-3 / analyse=0x3:0x113 / me=umh / subme=11 / psy=1 / fade_compensate=0.00 / psy_rd=1.00:0.00 / mixed_ref=1 / me_range=48 / chroma_me=1 / trellis=2 / 8x8dct=1 / cqm=0 / deadzone=21,11 / fast_pskip=0 / chroma_qp_offset=-2 / threads=17 / lookahead_threads=4 / sliced_threads=0 / nr=0 / decimate=0 / interlaced=0 / bluray_compat=0 / constrained_intra=0 / fgo=0 / bframes=12 / b_pyramid=2 / b_adapt=2 / b_bias=0 / direct=3 / weightb=1 / open_gop=0 / weightp=2 / keyint=250 / keyint_min=23 / scenecut=40 / intra_refresh=0 / rc_lookahead=60 / rc=crf / mbtree=0 / crf=14.6000 / qcomp=0.60 / qpmin=0:0:0 / qpmax=69:69:69 / qpstep=4 / vbv_maxrate=62500 / vbv_bufsize=78125 / crf_max=0.0 / nal_hrd=none / filler=0 / ip_ratio=1.30 / pb_ratio=1.20 / aq=3:0.80 / aq-sensitivity=10.00 / aq-factor=1.00:1.00:1.00 / aq2=0 / aq3=0 / zones=45409,50521,crf=12.6/131041,131699,crf=12.6

Language : English

Default : Yes

Forced : No

Color range : Limited

Color primaries : BT.709

Transfer characteristics : BT.709

Matrix coefficients : BT.709



Audio #1

ID : 2

Format : AC-3

Format/Info : Audio Coding 3

Mode extension : CM (complete main)

Format settings, Endianness : Big

Codec ID : A_AC3

Duration : 1 h 43 min

Bit rate mode : Constant

Bit rate : 448 kb/s

Channel(s) : 6 channels

Channel positions : Front: L C R, Side: L R, LFE

Sampling rate : 48.0 kHz

Frame rate : 31.250 FPS (1536 spf)

Compression mode : Lossy

Stream size : 333 MiB (5%)

Title : MVO (HDRezka Studio)

Language : Russian

Default : Yes

Forced : No



Audio #2

ID : 3

Format : AC-3

Format/Info : Audio Coding 3

Mode extension : CM (complete main)

Format settings, Endianness : Big

Codec ID : A_AC3

Duration : 1 h 43 min

Bit rate mode : Constant

Bit rate : 640 kb/s

Channel(s) : 6 channels

Channel positions : Front: L C R, Side: L R, LFE

Sampling rate : 48.0 kHz

Frame rate : 31.250 FPS (1536 spf)

Compression mode : Lossy

Stream size : 476 MiB (7%)

Title : AC3 DD5.1

Language : English

Default : No

Forced : No



Text #1

ID : 4

Format : UTF-8

Codec ID : S_TEXT/UTF8

Codec ID/Info : UTF-8 Plain Text

Title : Forced

Language : Russian

Default : Yes

Forced : No



Text #2

ID : 5

Format : UTF-8

Codec ID : S_TEXT/UTF8

Codec ID/Info : UTF-8 Plain Text

Title : Full (Focs)

Language : Russian

Default : No

Forced : No



Text #3

ID : 6

Format : UTF-8

Codec ID : S_TEXT/UTF8

Codec ID/Info : UTF-8 Plain Text

Title : Full

Language : English

Default : No

Forced : No



Text #4

ID : 7

Format : UTF-8

Codec ID : S_TEXT/UTF8

Codec ID/Info : UTF-8 Plain Text

Title : SDH

Language : English

Default : No

Forced : No



Menu

00:00:00.000 : en:Chapter 01

00:12:44.054 : en:Chapter 02

00:31:39.564 : en:Chapter 03

00:55:52.515 : en:Chapter 04

01:17:14.129 : en:Chapter 05

01:32:59.031 : en:Chapter 06













Релиз от:



Автор релиза:

Discussion

Comments 0

Post Your Comment

Files in this torrent

FILENAMESIZE
Capone.2020.MVO.720p.BluRay.ExKinoRay.mkv6.4 GB

Alternative Torrents for 'Capone MVO BluRay'.

TORRENT NAMEADDEDSIZESEEDSPEERSHEALTH
5/28/20206.4 GB00
5/28/202011.6 GB00