The Invisible Man (2020) 2160p HDR 5 1 X265 10bit Phun Psyz

Torrent Details

The Invisible Man (2020) 2160p HDR 5 1 x265 10bit Phun Psyz

NAME
The Invisible Man (2020) 2160p HDR 5 1 x265 10bit Phun Psyz.torrent
CATEGORY
Movies
INFOHASH
cad2f2ca2c9b909653ac52e2570a1ca045869159
SIZE
3.2 GB in 1 file
ADDED
Uploaded on 28-05-2020 by our crawler pet called "Spidey".
SWARM
0 seeders & 0 peers
RATING
No votes yet.

Please login to vote for this torrent.


Description

www.imdb.com/title/tt1051906/



When Cecilia's abusive ex takes his own life and leaves her his fortune, she suspects his death was a hoax. As a series of coincidences turn lethal, Cecilia works to prove that she is being hunted by someone nobody can see.



Source: DDR (Web)







Format                      : Matroska

Format version              : Version 4

File size                   : 3.23 GiB

Duration                    : 2 h 4 min

Overall bit rate            : 3 720 kb/s

Writing application         : HandBrake 1.2.0 2018121700

Writing library             : Lavf58.20.100



Video

ID                          : 1

Format                      : HEVC

Format/Info                 : High Efficiency Video Coding

Format profile              : Main [email protected]@High

Codec ID                    : V_MPEGH/ISO/HEVC

Duration                    : 2 h 4 min

Bit rate                    : 3 326 kb/s

Width                       : 3 840 pixels

Height                      : 1 600 pixels

Display aspect ratio        : 2.40:1

Frame rate mode             : Constant

Frame rate                  : 23.976 (24000/1001) FPS

Color space                 : YUV

Chroma subsampling          : 4:2:0

Bit depth                   : 10 bits

Bits/(Pixel*Frame)          : 0.023

Stream size                 : 2.89 GiB (89%)

Writing library             : x265 2.9:[Windows][GCC 7.1.0][64 bit] 10bit

Color range                 : Full

Color primaries             : BT.2020

Transfer characteristics    : PQ

Matrix coefficients         : BT.2020 non-constant



Audio

ID                          : 2

Format                      : AC-3

Format/Info                 : Audio Coding 3

Commercial name             : Dolby Digital

Codec ID                    : A_AC3

Duration                    : 2 h 4 min

Bit rate mode               : Constant

Bit rate                    : 320 kb/s

Channel(s)                  : 6 channels

Channel layout              : L R C LFE Ls Rs

Sampling rate               : 48.0 kHz

Frame rate                  : 31.250 FPS (1536 SPF)

Bit depth                   : 16 bits

Compression mode            : Lossy

Delay relative to video     : -5 ms

Stream size                 : 285 MiB (9%)

Title                       : Surround

Language                    : English



Text

Language                    : English

Language                    : French

Language                    : Spanish

Default                     : No

Forced                      : No

Discussion

Comments 0

Post Your Comment

Files in this torrent

FILENAMESIZE
The Invisible Man (2020) 2160p HDR 5.1 x265 10bit Phun Psyz.mkv3.2 GB

Alternative Torrents for 'Invisible Man HDR bit Phun Psyz'.

TORRENT NAMEADDEDSIZESEEDSPEERSHEALTH
6/22/20202 GB38123
Yesterday2 GB36230
6/16/20201.5 GB2215
6/18/2020864 MB20910
6/19/20201.9 GB19710
6/25/20201.9 GB1884
6/20/20201 GB14227
6/17/20205 GB13813
6/16/202011.4 GB12213
6/20/20202.1 GB10227
6/28/20203.4 GB9326
6/19/2020864 MB859
6/28/20206.6 GB83106
6/22/2020677 MB722
6/22/20203.2 GB668