1917 2019 BDRip AVC Rip By HardwareMining R G Generalfilm

Torrent Details

1917 2019 BDRip AVC Rip by HardwareMining R G<span style=color:#fc9c6d> Generalfilm</span>1917 2019 BDRip AVC Rip by HardwareMining R G<span style=color:#fc9c6d> Generalfilm</span>

NAME
1917 2019 BDRip AVC Rip by HardwareMining R G Generalfilm.torrent
CATEGORY
Movies
INFOHASH
725b1d48cc4e72e8a981cf695f09feeab0a500ce
SIZE
2.1 GB in 1 file
ADDED
Uploaded on 28-05-2020 by our crawler pet called "Spidey".
SWARM
0 seeders & 0 peers
RATING
No votes yet.

Please login to vote for this torrent.


Description

1917 / 1917





Информация о фильме

Год выпуска: 2019

Страна: США, Великобритания, Индия

Жанр: военный, боевик, драма

Перевод: Дублированный [Лицензия]

Субтитры: русские (Forced),

Продолжительность: 01:58:57

Режиссер: Сэм Мендес

В ролях:





Джордж Маккэй (Lance Corporal Schofield), Дин-Чарльз Чепмен (Lance Corporal Blake), Марк Стронг (Captain Smith), Эндрю Скотт (Lieutenant Leslie), Ричард Мэдден (Lieutenant Joseph Blake), Клэр Дюбюрк (Lauri), Колин Фёрт (General Erinmore), Бенедикт Камбербэтч (Colonel Mackenzie), Дэниэл Мейс (Sergeant Sanders), Эдриан Скарборо (Major Hepburn), Пип Картер (Lieutenant Gordon), Энди Аполло (Sergeant Miller)



Описание:

6 апреля 1917 года, разгар Первой мировой войны, Западный фронт на севере Франции. Британский генерал поручает капралу Блэйку и его сослуживцу смертельно опасную миссию. Они должны пересечь вражескую территорию, вроде бы оставленную германскими войсками, и доставить приказ об отмене наступления во 2-й батальон Девонширского полка, иначе 1600 солдат попадут в ловушку противника, в том числе и брат Блэйка.

Рейтинг:





MPAA: R - Лицам до 17 лет обязательно присутствие взрослого

Качество: BDRip-AVC

Формат: MKV

Видео: AVC, 1024x428 (2.40:1), 2111 kbps, 23,976 fps, 0,201 bpp

Аудио: русский / AC3 / 5.1 / 48 kHz / 448 kbps / ||

Навигация по главам: есть



Релиз от:





Отчет МедиаИнфо

Общее

Уникальный идентификатор : 251852739974325376927980259468187246603 (0xBD7912C70440DD61B98C328BE01FA00B)

Полное имя : G:GF1917.2019.BDRip.AVC.Rip.by.HardwareMining.R.G.Generalfilm.mkv

Формат : Matroska

Версия формата : Version 4

Размер файла : 2,13 Гбайт

Продолжительность : 1 ч. 58 м.

Общий поток : 2 561 Кбит/сек

Название фильма : HardwareMining.R.G.Generalfilm

Дата кодирования : UTC 2020-05-24 14:13:50

Программа кодирования : mkvmerge v6.8.0 ('Theme for Great Cities') 64bit built on Mar 2 2014 21:34:26

Библиотека кодирования : libebml v1.3.0 + libmatroska v1.4.1



Видео

Идентификатор : 1

Формат : AVC

Формат/Информация : Advanced Video Codec

Профиль формата : [email protected]

Настройки формата : CABAC / 10 Ref Frames

Параметр CABAC формата : Да

Параметр RefFrames формата : 10 кадров

Идентификатор кодека : V_MPEG4/ISO/AVC

Продолжительность : 1 ч. 58 м.

Битрейт : 2 111 Кбит/сек

Ширина : 1 024 пикселя

Высота : 428 пикселей

Соотношение сторон : 2,40:1

Режим частоты кадров : Постоянный

Частота кадров : 23,976 (24000/1001) кадра/сек

Цветовое пространство : YUV

Субдискретизация насыщенности : 4:2:0

Битовая глубина : 8 бит

Тип развёртки : Прогрессивная

Бит/(Пиксели*Кадры) : 0.201

Размер потока : 1,71 Гбайт (81%)

Библиотека кодирования : x264 core 148 r2638 7599210

Настройки программы : cabac=1 / ref=10 / deblock=1:-2:-1 / analyse=0x3:0x113 / me=umh / subme=11 / psy=1 / psy_rd=0.00:0.15 / mixed_ref=1 / me_range=32 / chroma_me=1 / trellis=2 / 8x8dct=1 / cqm=0 / deadzone=21,11 / fast_pskip=0 / chroma_qp_offset=-3 / threads=6 / lookahead_threads=1 / sliced_threads=0 / nr=0 / decimate=0 / interlaced=0 / bluray_compat=0 / constrained_intra=0 / bframes=10 / b_pyramid=2 / b_adapt=2 / b_bias=0 / direct=1 / weightb=1 / open_gop=0 / weightp=2 / keyint=240 / keyint_min=23 / scenecut=40 / intra_refresh=0 / rc_lookahead=40 / rc=2pass / mbtree=0 / bitrate=2111 / ratetol=1.0 / qcomp=0.65 / qpmin=0 / qpmax=69 / qpstep=4 / cplxblur=20.0 / qblur=0.5 / vbv_maxrate=50000 / vbv_bufsize=65500 / nal_hrd=none / filler=0 / ip_ratio=1.40 / pb_ratio=1.30 / aq=1:2.00

Язык : English

Default : Да

Forced : Нет

Duration_Source : General_Duration



Аудио

Идентификатор : 2

Формат : AC-3

Формат/Информация : Audio Coding 3

Коммерческое название : Dolby Digital

Идентификатор кодека : A_AC3

Продолжительность : 1 ч. 58 м.

Вид битрейта : Постоянный

Битрейт : 448 Кбит/сек

Каналы : 6 каналов

Channel layout : L R C LFE Ls Rs

Частота : 48,0 КГц

Частота кадров : 31,250 кадров/сек (1536 SPF)

Метод сжатия : С потерями

Размер потока : 381 Мбайт (17%)

Заголовок : Dub [License]

Язык : Russian

Service kind : Complete Main

Default : Да

Forced : Нет

Duration_Source : General_Duration



Текст

Идентификатор : 3

Формат : UTF-8

Идентификатор кодека : S_TEXT/UTF8

Идентификатор кодека/Информация : UTF-8 Plain Text

Заголовок : Forced

Язык : Russian

Default : Да

Forced : Да



Меню

00:00:00.000 : en:

00:04:59.424 : en:

00:08:19.374 : en:

00:13:26.639 : en:

00:16:38.789 : en:

00:23:32.494 : en:

00:30:28.660 : en:

00:35:34.549 : en:

00:42:25.376 : en:

00:51:34.091 : en:

00:56:36.310 : en:

01:02:29.079 : en:

01:06:33.573 : en:

01:12:04.320 : en:

01:19:45.197 : en:

01:28:47.822 : en:

01:33:43.451 : en:

01:38:11.594 : en:

01:41:43.681 : en:

01:49:46.580 : en:



Скриншоты

Discussion

Comments 0

Post Your Comment

Files in this torrent

FILENAMESIZE
1917.2019.BDRip.AVC.Rip.by.HardwareMining.R.G.Generalfilm.mkv2.1 GB

Alternative Torrents for 'AVC Rip by HardwareMining'.

TORRENT NAMEADDEDSIZESEEDSPEERSHEALTH
6/14/20201.5 GB00
6/12/20201.8 GB00
5/28/20202.1 GB00
5/22/20201.3 GB00
5/17/20201.5 GB00
5/2/20201.3 GB00