Aquaman (2018) [2160p] [HDR] (bluray) [WMAN-LorD]

Torrent Details

Aquaman (2018) [2160p] [HDR] (bluray) [WMAN-LorD]
Aquaman (2018) [2160p] [HDR] (bluray) [WMAN-LorD]

NAME
Aquaman (2018) [2160p] [HDR] (bluray) [WMAN-LorD].torrent
CATEGORY
Movies
INFOHASH
19a00e7e27fb193887ca2c06882b5a85598aa0e7
SIZE
6.5 GB in 2 files
ADDED
Uploaded on 29-05-2020 by our crawler pet called "Spidey".
SWARM
0 seeders & 0 peers
RATING
No votes yet.

Please login to vote for this torrent.


Description

Release info:

>Encoded by: [WMAN-LorD]

>HDR working!

>Source: Blu-ray Original 4k HDR





























[code]

General

Unique ID                   : 299382122689171110438654800474350174551 (0xE13AE644FC2E3E7E45159CDB693E4157)

Complete name               : Aquaman.2018.2160p.UHD.HDR.BluRay.x265.10bit.DD5.1.[WMAN-LorD]D.mkv

Format                      : Matroska

Format version              : Version 4

File size                   : 6.47 GiB

Duration                    : 2 h 23 min

Overall bit rate            : 6 465 kb/s

Movie name                  : Aquaman 4K

Encoded date                : UTC 2019-03-16 01:18:16

Writing application         : mkvmerge v31.0.0 ('Dolores In A Shoestand') 64-bit

Writing library             : libebml v1.3.6 + libmatroska v1.4.9

Cover                       : Yes

Attachments                 : cover.jpg



Video

ID                          : 1

Format                      : HEVC

Format/Info                 : High Efficiency Video Coding

Format profile              : Main [email protected]@Main

Codec ID                    : V_MPEGH/ISO/HEVC

Duration                    : 2 h 23 min

Bit rate                    : 5 828 kb/s

Width                       : 3 840 pixels

Height                      : 2 160 pixels

Display aspect ratio        : 16:9

Frame rate mode             : Constant

Frame rate                  : 23.976 (24000/1001) FPS

Color space                 : YUV

Chroma subsampling          : 4:2:0

Bit depth                   : 10 bits

Bits/(Pixel*Frame)          : 0.029

Stream size                 : 5.83 GiB (90%)

Title                       : [WMAN-LorD]

Default                     : Yes

Forced                      : No

Color range                 : Limited

Color primaries             : BT.2020

Transfer characteristics    : PQ

Matrix coefficients         : BT.2020 non-constant



Audio

ID                          : 2

Format                      : AC-3

Format/Info                 : Audio Coding 3

Commercial name             : Dolby Digital

Codec ID                    : A_AC3

Duration                    : 2 h 23 min

Bit rate mode               : Constant

Bit rate                    : 448 kb/s

Channel(s)                  : 6 channels

Channel layout              : L R C LFE Ls Rs

Sampling rate               : 48.0 kHz

Frame rate                  : 31.250 FPS (1536 SPF)

Compression mode            : Lossy

Stream size                 : 459 MiB (7%)

Title                       : Compatibility Track / Dolby Digital Audio / 5.1 / 48 kHz / 640 kbps

Language                    : English

Service kind                : Complete Main

Default                     : No

Forced                      : No



Text #1

ID                          : 3

Format                      : PGS

Muxing mode                 : zlib

Codec ID                    : S_HDMV/PGS

Codec ID/Info               : Picture based subtitle format used on BDs/HD-DVDs

Duration                    : 2 h 22 min

Bit rate                    : 21.2 kb/s

Count of elements           : 2246

Stream size                 : 21.5 MiB (0%)

Title                       : Portuguese (Iberian)

Language                    : Portuguese

Default                     : Yes

Forced                      : No



Text #2

ID                          : 4

Format                      : PGS

Muxing mode                 : zlib

Codec ID                    : S_HDMV/PGS

Codec ID/Info               : Picture based subtitle format used on BDs/HD-DVDs

Duration                    : 2 h 22 min

Bit rate                    : 25.8 kb/s

Count of elements           : 2940

Stream size                 : 26.4 MiB (0%)

Title                       : English (SDH)

Language                    : English

Default                     : No

Forced                      : No



Text #3

ID                          : 5

Format                      : PGS

Muxing mode                 : zlib

Codec ID                    : S_HDMV/PGS

Codec ID/Info               : Picture based subtitle format used on BDs/HD-DVDs

Duration                    : 2 h 22 min

Bit rate                    : 11.4 kb/s

Count of elements           : 2262

Stream size                 : 11.6 MiB (0%)

Title                       : Arabic

Language                    : Arabic

Default                     : No

Forced                      : No



Text #4

ID                          : 6

Format                      : PGS

Muxing mode                 : zlib

Codec ID                    : S_HDMV/PGS

Codec ID/Info               : Picture based subtitle format used on BDs/HD-DVDs

Duration                    : 2 h 22 min

Bit rate                    : 20.2 kb/s

Count of elements           : 2264

Stream size                 : 20.6 MiB (0%)

Title                       : Bulgarian

Language                    : Bulgarian

Default                     : No

Forced                      : No



Text #5

ID                          : 7

Format                      : PGS

Muxing mode                 : zlib

Codec ID                    : S_HDMV/PGS

Codec ID/Info               : Picture based subtitle format used on BDs/HD-DVDs

Duration                    : 2 h 22 min

Bit rate                    : 19.4 kb/s

Count of elements           : 2256

Stream size                 : 19.7 MiB (0%)

Title                       : Chinese (Cantonese)

Language                    : Chinese

Default                     : No

Forced                      : No



Text #6

ID                          : 8

Format                      : PGS

Muxing mode                 : zlib

Codec ID                    : S_HDMV/PGS

Codec ID/Info               : Picture based subtitle format used on BDs/HD-DVDs

Duration                    : 2 h 22 min

Bit rate                    : 23.9 kb/s

Count of elements           : 2696

Stream size                 : 24.3 MiB (0%)

Title                       : Chinese (Mandarin Simplified)

Language                    : Chinese

Default                     : No

Forced                      : No



Text #7

ID                          : 9

Format                      : PGS

Muxing mode                 : zlib

Codec ID                    : S_HDMV/PGS

Codec ID/Info               : Picture based subtitle format used on BDs/HD-DVDs

Duration                    : 2 h 22 min

Bit rate                    : 20.8 kb/s

Count of elements           : 2116

Stream size                 : 21.1 MiB (0%)

Title                       : Chinese (Mandarin Traditional)

Language                    : Chinese

Default                     : No

Forced                      : No



Text #8

ID                          : 10

Format                      : PGS

Muxing mode                 : zlib

Codec ID                    : S_HDMV/PGS

Codec ID/Info               : Picture based subtitle format used on BDs/HD-DVDs

Duration                    : 2 h 22 min

Bit rate                    : 21.4 kb/s

Count of elements           : 2250

Stream size                 : 21.8 MiB (0%)

Title                       : Croatian

Language                    : Croatian

Default                     : No

Forced                      : No



Text #9

ID                          : 11

Format                      : PGS

Muxing mode                 : zlib

Codec ID                    : S_HDMV/PGS

Codec ID/Info               : Picture based subtitle format used on BDs/HD-DVDs

Duration                    : 2 h 22 min

Bit rate                    : 19.7 kb/s

Count of elements           : 2242

Stream size                 : 20.0 MiB (0%)

Title                       : Czech

Language                    : Czech

Default                     : No

Forced                      : No



Text #10

ID                          : 12

Format                      : PGS

Muxing mode                 : zlib

Codec ID                    : S_HDMV/PGS

Codec ID/Info               : Picture based subtitle format used on BDs/HD-DVDs

Duration                    : 2 h 22 min

Bit rate                    : 20.1 kb/s

Count of elements           : 1776

Stream size                 : 20.4 MiB (0%)

Title                       : Danish

Language                    : Danish

Default                     : No

Forced                      : No



Text #11

ID                          : 13

Format                      : PGS

Muxing mode                 : zlib

Codec ID                    : S_HDMV/PGS

Codec ID/Info               : Picture based subtitle format used on BDs/HD-DVDs

Duration                    : 2 h 22 min

Bit rate                    : 19.1 kb/s

Count of elements           : 2236

Stream size                 : 19.5 MiB (0%)

Title                       : Finnish

Language                    : Finnish

Default                     : No

Forced                      : No



Text #12

ID                          : 14

Format                      : PGS

Muxing mode                 : zlib

Codec ID                    : S_HDMV/PGS

Codec ID/Info               : Picture based subtitle format used on BDs/HD-DVDs

Duration                    : 2 h 22 min

Bit rate                    : 19.1 kb/s

Count of elements           : 2412

Stream size                 : 19.4 MiB (0%)

Title                       : French

Language                    : French

Default                     : No

Forced                      : No



Text #13

ID                          : 15

Format                      : PGS

Muxing mode                 : zlib

Codec ID                    : S_HDMV/PGS

Codec ID/Info               : Picture based subtitle format used on BDs/HD-DVDs

Duration                    : 2 h 22 min

Bit rate                    : 22.4 kb/s

Count of elements           : 2236

Stream size                 : 22.8 MiB (0%)

Title                       : Greek

Language                    : Greek

Default                     : No

Forced                      : No



Text #14

ID                          : 16

Format                      : PGS

Muxing mode                 : zlib

Codec ID                    : S_HDMV/PGS

Codec ID/Info               : Picture based subtitle format used on BDs/HD-DVDs

Duration                    : 2 h 22 min

Bit rate                    : 21.9 kb/s

Count of elements           : 2230

Stream size                 : 22.3 MiB (0%)

Title                       : Hungarian

Language                    : Hungarian

Default                     : No

Forced                      : No



Text #15

ID                          : 17

Format                      : PGS

Muxing mode                 : zlib

Codec ID                    : S_HDMV/PGS

Codec ID/Info               : Picture based subtitle format used on BDs/HD-DVDs

Duration                    : 2 h 15 min

Bit rate                    : 27.8 kb/s

Count of elements           : 2972

Stream size                 : 26.8 MiB (0%)

Title                       : Italian (SDH)

Language                    : Italian

Default                     : No

Forced                      : No



Text #16

ID                          : 18

Format                      : PGS

Muxing mode                 : zlib

Codec ID                    : S_HDMV/PGS

Codec ID/Info               : Picture based subtitle format used on BDs/HD-DVDs

Duration                    : 2 h 14 min

Bit rate                    : 16.7 kb/s

Count of elements           : 3235

Stream size                 : 16.1 MiB (0%)

Title                       : Japanese

Language                    : Japanese

Default                     : No

Forced                      : No



Text #17

ID                          : 19

Format                      : PGS

Muxing mode                 : zlib

Codec ID                    : S_HDMV/PGS

Codec ID/Info               : Picture based subtitle format used on BDs/HD-DVDs

Duration                    : 2 h 22 min

Bit rate                    : 12.7 kb/s

Count of elements           : 2262

Stream size                 : 12.9 MiB (0%)

Title                       : Korean

Language                    : Korean

Default                     : No

Forced                      : No



Text #18

ID                          : 20

Format                      : PGS

Muxing mode                 : zlib

Codec ID                    : S_HDMV/PGS

Codec ID/Info               : Picture based subtitle format used on BDs/HD-DVDs

Duration                    : 2 h 22 min

Bit rate                    : 19.7 kb/s

Count of elements           : 1994

Stream size                 : 20.1 MiB (0%)

Title                       : Norwegian

Language                    : Norwegian

Default                     : No

Forced                      : No



Text #19

ID                          : 21

Format                      : PGS

Muxing mode                 : zlib

Codec ID                    : S_HDMV/PGS

Codec ID/Info               : Picture based subtitle format used on BDs/HD-DVDs

Duration                    : 2 h 22 min

Bit rate                    : 19.2 kb/s

Count of elements           : 2238

Stream size                 : 19.5 MiB (0%)

Title                       : Polish

Language                    : Polish

Default                     : No

Forced                      : No



Text #20

ID                          : 22

Format                      : PGS

Muxing mode                 : zlib

Codec ID                    : S_HDMV/PGS

Codec ID/Info               : Picture based subtitle format used on BDs/HD-DVDs

Duration                    : 2 h 22 min

Bit rate                    : 20.7 kb/s

Count of elements           : 2242

Stream size                 : 21.0 MiB (0%)

Title                       : Romanian

Language                    : Romanian

Default                     : No

Forced                      : No



Text #21

ID                          : 23

Format                      : PGS

Muxing mode                 : zlib

Codec ID                    : S_HDMV/PGS

Codec ID/Info               : Picture based subtitle format used on BDs/HD-DVDs

Duration                    : 2 h 22 min

Bit rate                    : 20.3 kb/s

Count of elements           : 2240

Stream size                 : 20.7 MiB (0%)

Title                       : Russian

Language                    : Russian

Default                     : No

Forced                      : No



Text #22

ID                          : 24

Format                      : PGS

Muxing mode                 : zlib

Codec ID                    : S_HDMV/PGS

Codec ID/Info               : Picture based subtitle format used on BDs/HD-DVDs

Duration                    : 2 h 22 min

Bit rate                    : 18.6 kb/s

Count of elements           : 2038

Stream size                 : 18.9 MiB (0%)

Title                       : Slovenian

Language                    : Slovenian

Default                     : No

Forced                      : No



Text #23

ID                          : 25

Format                      : PGS

Muxing mode                 : zlib

Codec ID                    : S_HDMV/PGS

Codec ID/Info               : Picture based subtitle format used on BDs/HD-DVDs

Duration                    : 2 h 22 min

Bit rate                    : 21.2 kb/s

Count of elements           : 2298

Stream size                 : 21.6 MiB (0%)

Title                       : Spanish (Castilian)

Language                    : Spanish

Default                     : No

Forced                      : No



Text #24

ID                          : 26

Format                      : PGS

Muxing mode                 : zlib

Codec ID                    : S_HDMV/PGS

Codec ID/Info               : Picture based subtitle format used on BDs/HD-DVDs

Duration                    : 2 h 22 min

Bit rate                    : 21.1 kb/s

Count of elements           : 2258

Stream size                 : 21.5 MiB (0%)

Title                       : Spanish (Latin American)

Language                    : Spanish

Default                     : No

Forced                      : No



Text #25

ID                          : 27

Format                      : PGS

Muxing mode                 : zlib

Codec ID                    : S_HDMV/PGS

Codec ID/Info               : Picture based subtitle format used on BDs/HD-DVDs

Duration                    : 2 h 22 min

Bit rate                    : 20.3 kb/s

Count of elements           : 2234

Stream size                 : 20.7 MiB (0%)

Title                       : Swedish

Language                    : Swedish

Default                     : No

Forced                      : No



Text #26

ID                          : 28

Format                      : PGS

Muxing mode                 : zlib

Codec ID                    : S_HDMV/PGS

Codec ID/Info               : Picture based subtitle format used on BDs/HD-DVDs

Duration                    : 2 h 22 min

Bit rate                    : 20.5 kb/s

Count of elements           : 2246

Stream size                 : 20.9 MiB (0%)

Title                       : Thai

Language                    : Thai

Default                     : No

Forced                      : No



Text #27

ID                          : 29

Format                      : PGS

Muxing mode                 : zlib

Codec ID                    : S_HDMV/PGS

Codec ID/Info               : Picture based subtitle format used on BDs/HD-DVDs

Duration                    : 2 h 22 min

Bit rate                    : 21.5 kb/s

Count of elements           : 2252

Stream size                 : 21.9 MiB (0%)

Title                       : Turkish

Language                    : Turkish

Default                     : No

Forced                      : No



Menu

00:00:00.000                : en:Chapter 01

00:11:08.293                : en:Chapter 02

00:22:10.621                : en:Chapter 03

00:30:10.017                : en:Chapter 04

00:40:27.717                : en:Chapter 05

00:50:23.646                : en:Chapter 06

01:01:14.754                : en:Chapter 07

01:08:56.090                : en:Chapter 08

01:21:40.270                : en:Chapter 09

01:34:49.434                : en:Chapter 10

01:39:36.429                : en:Chapter 11

01:49:31.815                : en:Chapter 12

02:01:35.538                : en:Chapter 13

02:10:18.894                : en:Chapter 14







[/code]





Discussion

Comments 0

Post Your Comment

Files in this torrent

FILENAMESIZE
Aquaman.2018.2160p.UHD.HDR.BluRay.x265.10bit.DD5.1.[WMAN-LorD]D.mkv6.5 GB
[TGx]Downloaded from torrentgalaxy.to .txt585 B

Alternative Torrents for 'Aquaman p HDR bluray WMANLorD'.

TORRENT NAMEADDEDSIZESEEDSPEERSHEALTH
6/18/2020836 MB1460117
6/18/20201.7 GB1234103
6/18/2020797 MB1155220
6/27/20201.7 GB982381
6/25/2020898 MB978206
6/27/2020833 MB977391
6/18/20201.7 GB872211
6/18/20208.3 GB871120
3/10/20182.4 GB825103
6/28/20206.1 GB616467
6/27/20206.2 GB551260
6/25/20201.8 GB504159
6/22/20201.4 GB44524
6/28/20201.4 GB408582
6/22/20202 GB38123