The Wrong Missy 2020 NF WEBRip 1080p

Torrent Details

The Wrong Missy 2020 NF WEBRip 1080p
The Wrong Missy 2020 NF WEBRip 1080p

NAME
The Wrong Missy 2020 NF WEBRip 1080p.torrent
CATEGORY
Movies
INFOHASH
2f75a1adc643cbafa934371a9f6a630d1f90d3ad
SIZE
5.9 GB in 1 file
ADDED
Uploaded on 29-05-2020 by our crawler pet called "Spidey".
SWARM
0 seeders & 0 peers
RATING
No votes yet.

Please login to vote for this torrent.


Description

Информация о фильме

Название: Не та девушка

Оригинальное название: The Wrong Missy

Год выхода: 2020

Жанр: Мелодрама, комедия

Режиссер: Тайлер Спиндел

В ролях: Дэвид Спейд, Лорен Лапкус, Ник Свардсон, Джеффри Пирсон, Молли Симс, Сара Чок, Ванилла Айс, Джон Фарли, Лори Пелениз Туисано, Крис Витаск, Кендес Смит, Сара Халфорд, Крис Титон,Скотт М. Шеве, Арлин Ньюман-Ван Асперен, Тереза Таффен



О фильме:

Когда Тим Моррис случайно знакомится с очаровательной Мисси, то понимает, что встретил девушку своей мечты. Чтобы покорить ее сердце, герой решает пригласить красавицу провести с ним уик-энд на шикарном курорте, где его компания проводит корпоратив. Но Тим ошибается и отправляет сообщение другой Мисси — взбалмошной, эксцентричной особе, которая не стесняется демонстрировать свои недостатки.







Страна: США

Студия: Happy Madison Productions, NetFlix, QC Entertainment

Продолжительность: 01:30:02

Перевод: Профессиональный двухголосый | IdeaFilm



Файл

Кодек: AVC

Качество: WEBRip 1080p | The.Wrong.Missy.2020.1080p.NF.WEBRip.DDP5.1.x264-NTb

Видео: MPEG-4 AVC, 8263 Kбит/с, 1920x800, 24.000 кадр/с

Аудио #1: Русский (АС3, 6 ch, 448 Кбит/с, 48.0 KHz) Профессиональный (двухголосый, закадровый) IdeaFilm

Аудио #2: Английский (АС3, 6 ch, 640 Кбит/с, 48.0 KHz)

Субтитры: Русские (Forced, Full), английские, испанские, французские, немецкие, итальянские, португальские | Нетфликс

► Без Рекламы!

Трейлер

MediaInfo Источник: The.Wrong.Missy.2020.1080p.NF.WEBRip.DDP5.1.x264-NTb

General

Unique ID : 178844989865164962473919273350745569587 (0x868C4AC996A32E179A96F3D51BB03933)

Complete name : The.Wrong.Missy.2020.NF.WEBRip.1080p.mkv

Format : Matroska

Format version : Version 4

File size : 5.88 GiB

Duration : 1 h 30 min

Overall bit rate : 9 354 kb/s

Encoded date : UTC 2020-05-27 13:06:58

Writing application : mkvmerge v7.1.0 ('Good Love') 64bit built on Jul 27 2014 13:06:55

Writing library : libebml v1.3.0 + libmatroska v1.4.1



Video

ID : 1

Format : AVC

Format/Info : Advanced Video Codec

Format profile : [email protected]

Format settings : CABAC / 5 Ref Frames

Format settings, CABAC : Yes

Format settings, Reference fra : 5 frames

Codec ID : V_MPEG4/ISO/AVC

Duration : 1 h 30 min

Bit rate : 8 263 kb/s

Width : 1 920 pixels

Height : 800 pixels

Display aspect ratio : 2.40:1

Frame rate mode : Constant

Frame rate : 24.000 FPS

Color space : YUV

Chroma subsampling : 4:2:0

Bit depth : 8 bits

Scan type : Progressive

Bits/(Pixel*Frame) : 0.224

Stream size : 5.20 GiB (88%)

Writing library : x264 core 160 r3000+55 7d98a0e patched [(8 & 10)[email protected] X86_64]

Encoding settings : cabac=1 / ref=5 / deblock=1:-3:-3 / analyse=0x3:0x133 / me=umh / subme=10 / psy=1 / fade_compensate=0.00 / psy_rd=1.00:0.15 / mixed_ref=1 / me_range=48 / chroma_me=1 / trellis=2 / 8x8dct=1 / cqm=0 / deadzone=21,11 / fast_pskip=0 / chroma_qp_offset=-3 / threads=18 / lookahead_threads=3 / sliced_threads=0 / nr=0 / decimate=0 / interlaced=0 / bluray_compat=0 / constrained_intra=0 / fgo=0 / bframes=8 / b_pyramid=2 / b_adapt=2 / b_bias=0 / direct=3 / weightb=1 / open_gop=0 / weightp=2 / keyint=250 / keyint_min=24 / scenecut=40 / intra_refresh=0 / rc=crf / mbtree=0 / crf=18.5000 / qcomp=0.60 / qpmin=0:0:0 / qpmax=69:69:69 / qpstep=4 / ip_ratio=1.30 / pb_ratio=1.20 / aq=3:0.80 / aq-sensitivity=10.00 / aq-factor=1.00:1.00:1.00 / aq2=0 / aq3=0

Language : English

Default : Yes

Forced : No



Audio #1

ID : 2

Format : AC-3

Format/Info : Audio Coding 3

Commercial name : Dolby Digital

Codec ID : A_AC3

Duration : 1 h 30 min

Bit rate mode : Constant

Bit rate : 448 kb/s

Channel(s) : 6 channels

Channel layout : L R C LFE Ls Rs

Sampling rate : 48.0 kHz

Frame rate : 31.250 FPS (1536 SPF)

Compression mode : Lossy

Stream size : 289 MiB (5%)

Title : IdeaFilm

Language : Russian

Service kind : Complete Main

Default : Yes

Forced : No



Audio #2

ID : 3

Format : AC-3

Format/Info : Audio Coding 3

Commercial name : Dolby Digital

Codec ID : A_AC3

Duration : 1 h 30 min

Bit rate mode : Constant

Bit rate : 640 kb/s

Channel(s) : 6 channels

Channel layout : L R C LFE Ls Rs

Sampling rate : 48.0 kHz

Frame rate : 31.250 FPS (1536 SPF)

Compression mode : Lossy

Stream size : 412 MiB (7%)

Language : English

Service kind : Complete Main

Default : No

Forced : No



Text #1

ID : 4

Format : UTF-8

Codec ID : S_TEXT/UTF8

Codec ID/Info : UTF-8 Plain Text

Duration : 1 h 20 min

Bit rate : 3 b/s

Count of elements : 38

Stream size : 2.04 KiB (0%)

Title : Forced

Language : Russian

Default : Yes

Forced : No



Text #2

ID : 5

Format : UTF-8

Codec ID : S_TEXT/UTF8

Codec ID/Info : UTF-8 Plain Text

Duration : 1 h 29 min

Bit rate : 112 b/s

Count of elements : 1522

Stream size : 73.7 KiB (0%)

Title : Full

Language : Russian

Default : No

Forced : No



Text #3

ID : 6

Format : UTF-8

Codec ID : S_TEXT/UTF8

Codec ID/Info : UTF-8 Plain Text

Duration : 1 h 29 min

Bit rate : 105 b/s

Count of elements : 2114

Stream size : 68.9 KiB (0%)

Title : SDH

Language : English

Default : No

Forced : No



Text #4

ID : 7

Format : UTF-8

Codec ID : S_TEXT/UTF8

Codec ID/Info : UTF-8 Plain Text

Duration : 1 h 29 min

Bit rate : 73 b/s

Count of elements : 1519

Stream size : 48.0 KiB (0%)

Language : German

Default : No

Forced : No



Text #5

ID : 8

Format : UTF-8

Codec ID : S_TEXT/UTF8

Codec ID/Info : UTF-8 Plain Text

Duration : 1 h 29 min

Bit rate : 69 b/s

Count of elements : 1475

Stream size : 45.3 KiB (0%)

Language : French

Default : No

Forced : No



Text #6

ID : 9

Format : UTF-8

Codec ID : S_TEXT/UTF8

Codec ID/Info : UTF-8 Plain Text

Duration : 1 h 29 min

Bit rate : 74 b/s

Count of elements : 1570

Stream size : 48.2 KiB (0%)

Title : European

Language : Spanish

Default : No

Forced : No



Text #7

ID : 10

Format : UTF-8

Codec ID : S_TEXT/UTF8

Codec ID/Info : UTF-8 Plain Text

Duration : 1 h 29 min

Bit rate : 72 b/s

Count of elements : 1475

Stream size : 47.3 KiB (0%)

Language : Italian

Default : No

Forced : No



Text #8

ID : 11

Format : UTF-8

Codec ID : S_TEXT/UTF8

Codec ID/Info : UTF-8 Plain Text

Duration : 1 h 29 min

Bit rate : 78 b/s

Count of elements : 1510

Stream size : 51.2 KiB (0%)

Language : Portuguese

Default : No

Forced : No

Скриншоты

Discussion

Comments 0

Post Your Comment

Files in this torrent

FILENAMESIZE
The.Wrong.Missy.2020.NF.WEBRip.1080p.mkv5.9 GB

Alternative Torrents for 'Wrong Missy NF'.

TORRENT NAMEADDEDSIZESEEDSPEERSHEALTH
6/1/20204 GB00
5/29/20205.9 GB00
5/23/20202.2 GB00
5/22/20205.6 GB00
5/22/20203.2 GB00
5/17/20204 GB00
5/16/20207.6 GB00
5/16/2020863 MB00
5/15/20201.6 GB00
5/15/20204 GB00
5/15/20202.1 GB00
5/15/20204 GB00
5/14/2020797 MB00
5/13/20204 GB00
5/13/20201.4 GB00