Capone (2020) (1080p BDRip X265 10bit DTS-HD MA 7.1 - ArcX)[TAoE]

Torrent Details

Capone (2020) (1080p BDRip x265 10bit DTS-HD MA 7.1 - ArcX)<span style=color:#fc9c6d>[TAoE]</span>
Capone (2020) (1080p BDRip x265 10bit DTS-HD MA 7.1 - ArcX)<span style=color:#fc9c6d>[TAoE]</span>

NAME
Capone (2020) (1080p BDRip x265 10bit DTS-HD MA 7.1 - ArcX)[TAoE].torrent
CATEGORY
Movies
INFOHASH
c967f4ba1a1da07a65a93305bdc849b3402143a8
SIZE
3.1 GB in 1 file
ADDED
Uploaded on 30-05-2020 by our crawler pet called "Spidey".
SWARM
0 seeders & 0 peers
RATING
No votes yet.

Please login to vote for this torrent.


Description









Capone (2020) IMDB















Media Information



General

Unique ID                                : 133851057726910043495148768400943789299 (0x64B2C6A903081E2D73EE5DD2194AB4F3)

Complete name                            : Capone (2020) (1080p BDRip x265 10bit DTS-HD MA 7.1 - ArcX)[TAoE].mkv

Format                                   : Matroska

Format version                           : Version 4

File size                                : 3.10 GiB

Duration                                 : 1 h 43 min

Overall bit rate mode                    : Variable

Overall bit rate                         : 4 279 kb/s

Movie name                               : Capone (2020) (1080p BDRip x265 10bit DTS-HD MA 7.1 - ArcX)[TAoE].mkv

Writing application                      : Lavf58.29.100

Writing library                          : Lavf58.29.100

ErrorDetectionType                       : Per level 1

IMDB                                     : tt6199572

TMDB                                     : movie/429422



Video

ID                                       : 1

Format                                   : HEVC

Format/Info                              : High Efficiency Video Coding

Format profile                           : Main [email protected]@Main

Codec ID                                 : V_MPEGH/ISO/HEVC

Duration                                 : 1 h 43 min

Bit rate                                 : 2 488 kb/s

Width                                    : 1 920 pixels

Height                                   : 1 080 pixels

Display aspect ratio                     : 16:9

Frame rate mode                          : Constant

Frame rate                               : 23.976 (24000/1001) FPS

Color space                              : YUV

Chroma subsampling                       : 4:2:0

Bit depth                                : 10 bits

Bits/(Pixel*Frame)                       : 0.050

Stream size                              : 1.81 GiB (58%)

Title                                    : Encoded by ArcX for TAoE

Writing library                          : x265 3.2.1+1-b5c86a64bbbe:[Linux][GCC 9.2.1][64 bit] 10bit

Encoding settings                        : cpuid=1111039 / frame-threads=2 / wpp / no-pmode / no-pme / no-psnr / no-ssim / log-level=2 / input-csp=1 / input-res=1920x1080 / interlace=0 / total-frames=0 / level-idc=0 / high-tier=1 / uhd-bd=0 / ref=4 / no-allow-non-conformance / no-repeat-headers / annexb / no-aud / no-hrd / info / hash=0 / no-temporal-layers / open-gop / min-keyint=23 / keyint=250 / gop-lookahead=0 / bframes=8 / b-adapt=2 / b-pyramid / bframe-bias=0 / rc-lookahead=80 / lookahead-slices=4 / scenecut=40 / radl=0 / no-splice / no-intra-refresh / ctu=64 / min-cu-size=8 / no-rect / no-amp / max-tu-size=32 / tu-inter-depth=1 / tu-intra-depth=1 / limit-tu=0 / rdoq-level=2 / dynamic-rd=0.00 / no-ssim-rd / signhide / no-tskip / nr-intra=0 / nr-inter=0 / no-constrained-intra / no-strong-intra-smoothing / max-merge=3 / limit-refs=3 / limit-modes / me=3 / subme=5 / merange=57 / temporal-mvp / no-hme / weightp / no-weightb / no-analyze-src-pics / deblock=0:0 / sao / no-sao-non-deblock / rd=4 / selective-sao=4 / no-early-skip / rskip / no-fast-intra / no-tskip-fast / no-cu-lossless / no-b-intra / no-splitrd-skip / rdpenalty=0 / psy-rd=1.30 / psy-rdoq=2.00 / no-rd-refine / no-lossless / cbqpoffs=0 / crqpoffs=0 / rc=crf / crf=20.0 / qcomp=0.60 / qpstep=4 / stats-write=0 / stats-read=0 / ipratio=1.40 / pbratio=1.30 / aq-mode=4 / aq-strength=1.10 / cutree / zone-count=0 / no-strict-cbr / qg-size=32 / no-rc-grain / qpmax=69 / qpmin=0 / no-const-vbv / sar=1 / overscan=0 / videoformat=5 / range=0 / colorprim=2 / transfer=2 / colormatrix=2 / chromaloc=0 / display-window=0 / cll=0,0 / min-luma=0 / max-luma=1023 / log2-max-poc-lsb=8 / vui-timing-info / vui-hrd-info / slices=1 / no-opt-qp-pps / no-opt-ref-list-length-pps / no-multi-pass-opt-rps / scenecut-bias=0.05 / no-opt-cu-delta-qp / no-aq-motion / no-hdr / no-hdr-opt / no-dhdr10-opt / no-idr-recovery-sei / analysis-reuse-level=5 / scale-factor=0 / refine-intra=0 / refine-inter=0 / refine-mv=1 / refine-ctu-distortion=0 / no-limit-sao / ctu-info=0 / no-lowpass-dct / refine-analysis-type=0 / copy-pic=1 / max-ausize-factor=1.0 / no-dynamic-refine / no-single-sei / no-hevc-aq / no-svt / no-field / qp-adaptation-range=1.00

Default                                  : Yes

Forced                                   : No

Color range                              : Limited



Audio

ID                                       : 2

Format                                   : DTS XLL

Format/Info                              : Digital Theater Systems

Commercial name                          : DTS-HD Master Audio

Codec ID                                 : A_DTS

Duration                                 : 1 h 43 min

Bit rate mode                            : Variable

Bit rate                                 : 1 760 kb/s

Channel(s)                               : 6 channels

Channel layout                           : C L R Ls Rs LFE

Sampling rate                            : 48.0 kHz

Frame rate                               : 93.750 FPS (512 SPF)

Bit depth                                : 16 bits

Compression mode                         : Lossless

Stream size                              : 1.28 GiB (41%)

Language                                 : English

Default                                  : Yes

Forced                                   : No



Text

ID                                       : 3

Format                                   : PGS

Codec ID                                 : S_HDMV/PGS

Codec ID/Info                            : Picture based subtitle format used on BDs/HD-DVDs

Duration                                 : 1 h 35 min

Bit rate                                 : 25.7 kb/s

Count of elements                        : 2370

Stream size                              : 17.6 MiB (1%)

Title                                    : English (SDH)

Language                                 : English

Default                                  : No

Forced                                   : No



Menu

00:00:00.000                             : :Chapter 01

00:12:44.055                             : :Chapter 02

00:31:39.564                             : :Chapter 03

00:55:52.516                             : :Chapter 04

01:17:14.129                             : :Chapter 05

01:32:59.032                             : :Chapter 06



Source Information



General

Unique ID                                : 166825468543035483919490394442662258275 (0x7D816AA20F79F0DF147173EAC591A663)

Complete name                            : Capone.2020.BluRay.1080p.DTS-HD.MA.5.1.AVC.REMUX-FraMeSToR.mkv

Format                                   : Matroska

Format version                           : Version 4

File size                                : 18.6 GiB

Duration                                 : 1 h 43 min

Overall bit rate mode                    : Variable

Overall bit rate                         : 25.7 Mb/s

Movie name                               : Capone (2020)

Encoded date                             : UTC 2020-05-25 11:57:03

Writing application                      : mkvmerge v46.0.0 ('No Deeper Escape') 64-bit

Writing library                          : libebml v1.3.10 + libmatroska v1.5.2

IMDB                                     : tt6199572

TMDB                                     : movie/429422



Video

ID                                       : 1

Format                                   : AVC

Format/Info                              : Advanced Video Codec

Format profile                           : [email protected]

Format settings                          : CABAC / 4 Ref Frames

Format settings, CABAC                   : Yes

Format settings, Reference frames        : 4 frames

Codec ID                                 : V_MPEG4/ISO/AVC

Duration                                 : 1 h 43 min

Bit rate mode                            : Constant

Bit rate                                 : 25.0 Mb/s

Width                                    : 1 920 pixels

Height                                   : 1 080 pixels

Display aspect ratio                     : 16:9

Frame rate mode                          : Constant

Frame rate                               : 23.976 (24000/1001) FPS

Standard                                 : NTSC

Color space                              : YUV

Chroma subsampling                       : 4:2:0

Bit depth                                : 8 bits

Scan type                                : Progressive

Bits/(Pixel*Frame)                       : 0.503

Stream size                              : 17.3 GiB (93%)

Default                                  : Yes

Forced                                   : No

Color range                              : Limited

Color primaries                          : BT.709

Transfer characteristics                 : BT.709

Matrix coefficients                      : BT.709



Audio

ID                                       : 2

Format                                   : DTS XLL

Format/Info                              : Digital Theater Systems

Commercial name                          : DTS-HD Master Audio

Codec ID                                 : A_DTS

Duration                                 : 1 h 43 min

Bit rate mode                            : Variable

Bit rate                                 : 1 760 kb/s

Channel(s)                               : 6 channels

Channel layout                           : C L R Ls Rs LFE

Sampling rate                            : 48.0 kHz

Frame rate                               : 93.750 FPS (512 SPF)

Bit depth                                : 16 bits

Compression mode                         : Lossless

Stream size                              : 1.28 GiB (7%)

Title                                    : DTS-HD MA 5.1

Language                                 : English

Default                                  : Yes

Forced                                   : No



Text

ID                                       : 3

Format                                   : PGS

Codec ID                                 : S_HDMV/PGS

Codec ID/Info                            : Picture based subtitle format used on BDs/HD-DVDs

Duration                                 : 1 h 35 min

Bit rate                                 : 25.7 kb/s

Count of elements                        : 2370

Stream size                              : 17.6 MiB (0%)

Title                                    : English (SDH)

Language                                 : English

Default                                  : No

Forced                                   : No



Menu

00:00:00.000                             : en:Chapter 01

00:12:44.055                             : en:Chapter 02

00:31:39.564                             : en:Chapter 03

00:55:52.516                             : en:Chapter 04

01:17:14.129                             : en:Chapter 05

01:32:59.032                             : en:Chapter 06



Hello everyone,

We are TAoE, a small team of passionate encoders who love encoding. We try our best to provide you with high quality releases.



Requests for movies and shows are welcome.

We have a form for encode requests which can be found here

Encode requests form

submit your request and it will be added to our encoding request list

You can view our encoding request list here

Encode requests list





When or if we encode it will depend on if we can obtain a good source to encode with and

if one of the TAoE encoders chooses to encode it. Unfortunately we are not able to encode everything,

new members are welcome as that helps us encode more content!



If you would like to join TAoE submit your request here!

TAoE member applications form











.........................................................................................................................................

Discussion

Comments 0

Post Your Comment

Files in this torrent

FILENAMESIZE
Capone (2020) (1080p BDRip x265 10bit DTS-HD MA 7.1 - ArcX)[TAoE].mkv3.1 GB

Alternative Torrents for 'Capone bit DTSHD MA ArcX'.

TORRENT NAMEADDEDSIZESEEDSPEERSHEALTH
6/17/20205 GB13813
6/26/202021.2 GB11623
6/26/20209.3 GB8028
6/18/202019.6 GB6511
6/28/2020149 MB435
6/27/20201.3 GB425
6/28/2020171 MB412
6/28/2020525 MB402
6/28/2020761 MB391
6/28/2020479 MB384
6/28/20204.8 GB3823
6/26/20201.1 GB382
6/24/202020.1 GB375
6/22/202076.4 GB3720
6/24/20209.2 GB3511