The Hunt 2020 BDRip P 1080p

Torrent Details

The Hunt 2020 BDRip P 1080p
The Hunt 2020 BDRip P 1080p

NAME
The Hunt 2020 BDRip P 1080p.torrent
CATEGORY
Movies
INFOHASH
396b78d865734f3ad3135d1f419e89048ced6620
SIZE
7 GB in 1 file
ADDED
Uploaded on 30-05-2020 by our crawler pet called "Spidey".
SWARM
0 seeders & 0 peers
RATING
No votes yet.

Please login to vote for this torrent.


Description

Информация о фильме

Название: Охота

Оригинальное название: The Hunt

Год выхода: 2020

Жанр: Ужасы, боевик, триллер

Режиссер: Крэйг Зобел

В ролях: Бетти Гилпин, Эмма Робертс, Итэн Сапли, Хилари Суэнк, Джастин Хартли, Дж.С. МакКензи, Айк Баринхолц, Гленн Хоуертон, Эми Мэдиган, Мэйкон Блэр, Уэйн Дювалл, Кристофер Берри, Стерджил Симпсон, Кейт Ноулин



О фильме:

Несколько человек имели неосторожность обсуждать в групповом чате охоту на людей. Некоторое время спустя та же компания летит на частном самолёте, когда к ним в салон вваливается ничего непонимающий грязный мужчина, и встречает свою смерть — пассажиры жестоко его убивают. Ещё через какое-то время несколько человек приходят в себя на лесной поляне: во рту у них кляпы, рядом обнаруживается ящик со всевозможными оружием, а сами они стали мишенями в охоте на людей.







Страна: США

Студия: Blumhouse Productions, White Rabbit

Продолжительность: 01:30:02

Перевод: Профессиональный многоголосый | HDRezka Studio

*** Присутствует ненормативная лексика!



Файл

Кодек: x.264

Качество: BDRip 1080p | The.Hunt.2020.1080p.BluRay.x264-WUTANG

Видео: MPEG-4 AVC, 10.0 Mбит/с, 1920x804, 23.976 кадр/с

Аудио #1: Русский (АС3, 6 ch, 448 Кбит/с, 48.0 KHz) Профессиональный (многоголосый, закадровый) HDRezka Studio

Аудио #2: Английский (АС3, 6 ch, 640 Кбит/с, 48.0 KHz)

Субтитры: Русские (Forced, Full), английские

► Без Рекламы!

Трейлер

MediaInfo Источник: The.Hunt.2020.1080p.BluRay.x264-WUTANG

General

Unique ID : 246244221561353072050889694603890460982 (0xB940E9786BDB7FBDA8EDFE893F010936)

Complete name : The.Hunt.2020.BDRip.P.1080p.mkv

Format : Matroska

Format version : Version 4

File size : 6.98 GiB

Duration : 1 h 30 min

Overall bit rate : 11.1 Mb/s

Encoded date : UTC 2020-05-30 10:00:39

Writing application : mkvmerge v7.1.0 ('Good Love') 64bit built on Jul 27 2014 13:06:55

Writing library : libebml v1.3.0 + libmatroska v1.4.1



Video

ID : 1

Format : AVC

Format/Info : Advanced Video Codec

Format profile : [email protected]

Format settings : CABAC / 5 Ref Frames

Format settings, CABAC : Yes

Format settings, Reference fra : 5 frames

Codec ID : V_MPEG4/ISO/AVC

Duration : 1 h 30 min

Bit rate : 10.0 Mb/s

Width : 1 920 pixels

Height : 804 pixels

Display aspect ratio : 2.40:1

Frame rate mode : Constant

Frame rate : 23.976 (24000/1001) FPS

Color space : YUV

Chroma subsampling : 4:2:0

Bit depth : 8 bits

Scan type : Progressive

Bits/(Pixel*Frame) : 0.270

Stream size : 6.29 GiB (90%)

Writing library : x264 core 160 r3000 33f9e14

Encoding settings : cabac=1 / ref=5 / deblock=1:-3:-3 / analyse=0x3:0x133 / me=umh / subme=9 / psy=1 / psy_rd=1.00:0.00 / mixed_ref=1 / me_range=16 / chroma_me=1 / trellis=2 / 8x8dct=1 / cqm=0 / deadzone=21,11 / fast_pskip=0 / chroma_qp_offset=-2 / threads=16 / lookahead_threads=2 / sliced_threads=0 / nr=0 / decimate=0 / interlaced=0 / bluray_compat=0 / constrained_intra=0 / bframes=8 / b_pyramid=2 / b_adapt=2 / b_bias=0 / direct=3 / weightb=1 / open_gop=0 / weightp=2 / keyint=250 / keyint_min=23 / scenecut=40 / intra_refresh=0 / rc=crf / mbtree=0 / crf=15.6 / qcomp=0.60 / qpmin=0 / qpmax=69 / qpstep=4 / ip_ratio=1.35 / pb_ratio=1.25 / aq=3:0.85

Language : English

Default : Yes

Forced : No

Color range : Limited

Matrix coefficients : BT.709



Audio #1

ID : 2

Format : AC-3

Format/Info : Audio Coding 3

Commercial name : Dolby Digital

Codec ID : A_AC3

Duration : 1 h 30 min

Bit rate mode : Constant

Bit rate : 448 kb/s

Channel(s) : 6 channels

Channel layout : L R C LFE Ls Rs

Sampling rate : 48.0 kHz

Frame rate : 31.250 FPS (1536 SPF)

Compression mode : Lossy

Stream size : 288 MiB (4%)

Title : MVO | HDrezka Studio

Language : Russian

Service kind : Complete Main

Default : Yes

Forced : No



Audio #2

ID : 3

Format : AC-3

Format/Info : Audio Coding 3

Commercial name : Dolby Digital

Codec ID : A_AC3

Duration : 1 h 30 min

Bit rate mode : Constant

Bit rate : 640 kb/s

Channel(s) : 6 channels

Channel layout : L R C LFE Ls Rs

Sampling rate : 48.0 kHz

Frame rate : 31.250 FPS (1536 SPF)

Compression mode : Lossy

Stream size : 412 MiB (6%)

Language : English

Service kind : Complete Main

Default : No

Forced : No



Text #1

ID : 4

Format : UTF-8

Codec ID : S_TEXT/UTF8

Codec ID/Info : UTF-8 Plain Text

Duration : 1 min 0 s

Bit rate : 193 b/s

Count of elements : 18

Stream size : 1.43 KiB (0%)

Title : Forced

Language : Russian

Default : Yes

Forced : No



Text #2

ID : 5

Format : UTF-8

Codec ID : S_TEXT/UTF8

Codec ID/Info : UTF-8 Plain Text

Duration : 1 h 24 min

Bit rate : 90 b/s

Count of elements : 1239

Stream size : 55.4 KiB (0%)

Title : Full

Language : Russian

Default : No

Forced : No



Text #3

ID : 6

Format : UTF-8

Codec ID : S_TEXT/UTF8

Codec ID/Info : UTF-8 Plain Text

Duration : 1 h 22 min

Bit rate : 57 b/s

Count of elements : 1278

Stream size : 34.9 KiB (0%)

Language : English

Default : No

Forced : No



Text #4

ID : 7

Format : UTF-8

Codec ID : S_TEXT/UTF8

Codec ID/Info : UTF-8 Plain Text

Duration : 1 h 29 min

Bit rate : 62 b/s

Count of elements : 1572

Stream size : 40.9 KiB (0%)

Title : SDH

Language : English

Default : No

Forced : No



Menu

00:00:00.000 : en:Chapter 01

00:02:13.550 : en:Chapter 02

00:06:57.083 : en:Chapter 03

00:10:44.644 : en:Chapter 04

00:15:34.725 : en:Chapter 05

00:18:05.668 : en:Chapter 06

00:22:32.268 : en:Chapter 07

00:25:22.229 : en:Chapter 08

00:31:54.579 : en:Chapter 09

00:38:49.869 : en:Chapter 10

00:43:11.881 : en:Chapter 11

00:49:48.444 : en:Chapter 12

00:52:26.185 : en:Chapter 13

00:56:58.081 : en:Chapter 14

01:00:44.432 : en:Chapter 15

01:05:08.655 : en:Chapter 16

01:08:11.337 : en:Chapter 17

01:14:47.817 : en:Chapter 18

01:22:04.837 : en:Chapter 19

01:24:55.048 : en:Chapter 20

Скриншоты

Discussion

Comments 0

Post Your Comment

Files in this torrent

FILENAMESIZE
The.Hunt.2020.BDRip.P.1080p.mkv7 GB

Alternative Torrents for 'Hunt'.

TORRENT NAMEADDEDSIZESEEDSPEERSHEALTH
6/19/2020797 MB19236
6/20/2020852 MB6812
6/20/20201.7 GB6711
Yesterday381 MB436
Yesterday938 MB421
6/19/20201.4 GB395
Yesterday321 MB345
Yesterday40.5 GB344
6/22/20201.7 GB2710
6/19/20201.8 GB276
6/25/2020411 MB262
6/22/2020683 MB263
Yesterday796 MB234
Today956 MB2012
6/25/2020250 MB202