Star Trek Picard Season 1 (2020) 720p - Fiveofseven

Torrent Details

Star Trek Picard Season 1 (2020) 720p - fiveofseven

NAME
Star Trek Picard Season 1 (2020) 720p - fiveofseven.torrent
CATEGORY
Television
INFOHASH
378ba9fab23daad4537b2c71ac725aacceca1297
SIZE
3 GB in 20 files
ADDED
Uploaded on 30-05-2020 by our crawler pet called "Spidey".
SWARM
0 seeders & 0 peers
RATING
This torrent has a bad rating! This torrent has BAD rating with 0 votes.

Please login to vote for this torrent.


Description







PLOT - Follow-up series to Star Trek: The Next Generation (1987) and Star Trek: Nemesis (2002)

that centers on Jean-Luc Picard (Sir Patrick Stewart) in the next chapter of his life.













INFO



Encoder: fiveofseven

Source: 1080p.AMZN.WEB-DL.DDP5.1.H.264-NTb, 1080p.WEB.H264-GHOSTS

Rating: TV-14 and TV-MA

Genre: Action, Adventure, Drama

Subtitles: English (forced subs hardcoded)



General

Complete name                            : Star Trek Picard S01E01 Remembrance 720p - fiveofseven.mp4

Format                                   : MPEG-4

Format profile                           : Base Media

Codec ID                                 : isom

File size                                : 274 MiB

Duration                                 : 44mn 18s

Overall bit rate mode                    : Variable

Overall bit rate                         : 864 Kbps

Encoded date                             : UTC 2020-02-10 17:11:58

Tagged date                              : UTC 2020-02-10 17:11:58

Writing application                      : My MP4Box GUI 0.6.0.6



Video

ID                                       : 1

Format                                   : AVC

Format/Info                              : Advanced Video Codec

Format profile                           : [email protected]

Format settings, CABAC                   : Yes

Format settings, ReFrames                : 4 frames

Codec ID                                 : avc1

Codec ID/Info                            : Advanced Video Coding

Duration                                 : 44mn 18s

Bit rate                                 : 800 Kbps

Maximum bit rate                         : 7 044 Kbps

Width                                    : 1 280 pixels

Height                                   : 544 pixels

Display aspect ratio                     : 2.35:1

Frame rate mode                          : Constant

Frame rate                               : 23.976 fps

Color space                              : YUV

Chroma subsampling                       : 4:2:0

Bit depth                                : 8 bits

Scan type                                : Progressive

Bits/(Pixel*Frame)                       : 0.048

Stream size                              : 253 MiB (93%)

Title                                    : stp.mp4

Writing library                          : x264 core 157 r2935 545de2f

Language                                 : English



Audio

ID                                       : 2

Format                                   : AAC

Format/Info                              : Advanced Audio Codec

Format profile                           : LC

Codec ID                                 : 40

Duration                                 : 44mn 18s

Bit rate mode                            : Variable

Bit rate                                 : 59.6 Kbps

Maximum bit rate                         : 93.6 Kbps

Channel count                            : 2 channels

Channel positions                        : Front: L R

Sampling rate                            : 48.0 KHz

Compression mode                         : Lossy

Stream size                              : 18.9 MiB (7%)

Title                                    : aac.mp4

Language                                 : English









Discussion

Comments 0

Post Your Comment

Files in this torrent

FILENAMESIZE
Star Trek Picard S01E01 Remembrance 720p - fiveofseven.mp4273.7 MB
Star Trek Picard S01E01 Remembrance 720p - fiveofseven.srt40.6 KB
Star Trek Picard S01E02 Maps and Legends 720p - fiveofseven.mp4268 MB
Star Trek Picard S01E02 Maps and Legends 720p - fiveofseven.srt50.4 KB
Star Trek Picard S01E03 The End Is The Beginning 720p - fiveofseven.mp4264.7 MB
Star Trek Picard S01E03 The End Is The Beginning 720p - fiveofseven.srt39.3 KB
Star Trek Picard S01E04 Absolute Candor 720p - fiveofseven.mp4272.9 MB
Star Trek Picard S01E04 Absolute Candor 720p - fiveofseven.srt41.6 KB
Star Trek Picard S01E05 Stardust City Rag 720p - fiveofseven.mp4278.2 MB
Star Trek Picard S01E05 Stardust City Rag 720p - fiveofseven.srt51.8 KB
Star Trek Picard S01E06 The Impossible Box 720p - fiveofseven.mp4334.1 MB
Star Trek Picard S01E06 The Impossible Box 720p - fiveofseven.srt52.7 KB
Star Trek Picard S01E07 Nepenthe 720p - fiveofseven.mp4361.7 MB
Star Trek Picard S01E07 Nepenthe 720p - fiveofseven.srt58 KB
Star Trek Picard S01E08 Broken Pieces 720p - fiveofseven.mp4342.1 MB
Star Trek Picard S01E08 Broken Pieces 720p - fiveofseven.srt56.2 KB
Star Trek Picard S01E09 Et in Arcadia Ego Part 1 720p - fiveofseven.mp4278.6 MB
Star Trek Picard S01E09 Et in Arcadia Ego Part 1 720p - fiveofseven.srt44.9 KB
Star Trek Picard S01E10 Et in Arcadia Ego Part 2 720p - fiveofseven.mp4350.9 MB
Star Trek Picard S01E10 Et in Arcadia Ego Part 2 720p - fiveofseven.srt53 KB

Alternative Torrents for 'Star Trek Picard Season fiveofseven'.

TORRENT NAMEADDEDSIZESEEDSPEERSHEALTH
5/30/20203 GB00