Jaws 1975 MULTi UHD 2160p HDR Atmos 7 1 HEVC-DDR

Torrent Details

Jaws 1975 MULTi UHD 2160p HDR Atmos 7 1 HEVC-DDR

NAME
Jaws 1975 MULTi UHD 2160p HDR Atmos 7 1 HEVC-DDR.torrent
CATEGORY
Movies
INFOHASH
369dc72c04d436a1ab2b3b935a1408f496b2c86f
SIZE
20.8 GB in 1 file
ADDED
Uploaded on 31-05-2020 by our crawler pet called "Spidey".
SWARM
0 seeders & 0 peers
RATING
No votes yet.

Please login to vote for this torrent.


Description











Format                                   : Matroska

Format version                           : Version 4

File size                                : 20.8 GiB

Duration                                 : 2 h 3 min

Overall bit rate mode                    : Variable

Overall bit rate                         : 24.0 Mb/s



Video

ID                                       : 1

Format                                   : HEVC

Format/Info                              : High Efficiency Video Coding

Commercial name                          : HDR10

Format profile                           : Main [email protected]@High

Codec ID                                 : V_MPEGH/ISO/HEVC

Duration                                 : 2 h 3 min

Bit rate                                 : 16.1 Mb/s

Width                                    : 3 840 pixels

Height                                   : 1 632 pixels

Display aspect ratio                     : 2.35:1

Frame rate mode                          : Constant

Frame rate                               : 23.976 (24000/1001) FPS

Color space                              : YUV

Chroma subsampling                       : 4:2:0

Bit depth                                : 10 bits

Bits/(Pixel*Frame)                       : 0.107

Stream size                              : 14.0 GiB (67%)

Language                                 : English

Default                                  : Yes

Forced                                   : No

Color range                              : Limited

Color primaries                          : BT.2020

Transfer characteristics                 : PQ

Matrix coefficients                      : BT.2020 non-constant

Mastering display color primaries        : Display P3

Mastering display luminance              : min: 0.0050 cd/m2, max: 4000 cd/m2

Maximum Content Light Level              : 1000 cd/m2

Maximum Frame-Average Light Level        : 259 cd/m2



Audio #1

ID                                       : 2

ID in the original source medium         : 4353 (0x1101)

Format                                   : MLP FBA 16-ch

Format/Info                              : Meridian Lossless Packing FBA with 16-channel presentation

Commercial name                          : Dolby TrueHD with Dolby Atmos

Bit rate                                 : 3 709 kb/s

Maximum bit rate                         : 6 303 kb/s

Channel(s)                               : 8 channels

Language                                 : English



Audio #2

ID                                       : 3

ID in the original source medium         : 4353 (0x1101)

Format                                   : AC-3

Format/Info                              : Audio Coding 3

Commercial name                          : Dolby Digital

Codec ID                                 : A_AC3

Duration                                 : 2 h 3 min

Bit rate mode                            : Constant

Bit rate                                 : 448 kb/s

Channel(s)                               : 6 channels

Channel layout                           : L R C LFE Ls Rs

Sampling rate                            : 48.0 kHz

Frame rate                               : 31.250 FPS (1536 SPF)

Bit depth                                : 16 bits

Compression mode                         : Lossy

Stream size                              : 397 MiB (2%)

Language                                 : English

Service kind                             : Complete Main

Default                                  : No

Forced                                   : No

Original source medium                   : Blu-ray



Audio #3

ID                                       : 4

ID in the original source medium         : 4355 (0x1103)

Format                                   : DTS XBR

Format/Info                              : Digital Theater Systems

Commercial name                          : DTS-HD High Resolution Audio

Codec ID                                 : A_DTS

Duration                                 : 2 h 3 min

Bit rate mode                            : Constant

Bit rate                                 : 2 046 kb/s

Channel(s)                               : 8 channels

Channel layout                           : C L R LFE Lb Rb Lss Rss

Sampling rate                            : 48.0 kHz

Frame rate                               : 93.750 FPS (512 SPF)

Bit depth                                : 24 bits

Compression mode                         : Lossy

Stream size                              : 1.77 GiB (9%)

Language                                 : French

Default                                  : No

Forced                                   : No

Original source medium                   : Blu-ray



Audio #4

ID                                       : 5

ID in the original source medium         : 4357 (0x1105)

Format                                   : DTS

Format/Info                              : Digital Theater Systems

Codec ID                                 : A_DTS

Duration                                 : 2 h 3 min

Bit rate mode                            : Constant

Bit rate                                 : 768 kb/s

Channel(s)                               : 6 channels

Channel layout                           : C L R Ls Rs LFE

Sampling rate                            : 48.0 kHz

Frame rate                               : 93.750 FPS (512 SPF)

Bit depth                                : 24 bits

Compression mode                         : Lossy

Stream size                              : 681 MiB (3%)

Language                                 : Italian

Default                                  : No

Forced                                   : No

Original source medium                   : Blu-ray



Audio #5

ID                                       : 6

ID in the original source medium         : 4358 (0x1106)

Format                                   : DTS

Format/Info                              : Digital Theater Systems

Codec ID                                 : A_DTS

Duration                                 : 2 h 3 min

Bit rate mode                            : Constant

Bit rate                                 : 768 kb/s

Channel(s)                               : 6 channels

Channel layout                           : C L R Ls Rs LFE

Sampling rate                            : 48.0 kHz

Frame rate                               : 93.750 FPS (512 SPF)

Bit depth                                : 24 bits

Compression mode                         : Lossy

Stream size                              : 681 MiB (3%)

Language                                 : Czech







Subs

En Fr It Dan Dut Fin Nor Swe Cze Gre



MikeKhan /Desitorrents.tv

Discussion

Comments 0

Post Your Comment

Files in this torrent

FILENAMESIZE
Jaws.1975.MULTi.UHD.2160p.HDR.Atmos.7.1.HEVC-DDR.mkv20.8 GB

Alternative Torrents for 'Jaws MULTi UHD HDR Atmos HEVCDDR'.

TORRENT NAMEADDEDSIZESEEDSPEERSHEALTH
6/22/20202 GB38123
6/16/20201.5 GB2215
6/27/20202.2 GB19880
6/19/20201.9 GB19710
6/25/20201.9 GB1884
6/27/20202.6 GB16661
6/28/20205.8 GB153398
6/19/20205.4 GB1324
6/25/20204.3 GB12546
6/16/202011.4 GB12213
6/26/202011.3 GB11955
6/26/202021.2 GB11623
6/16/20204 GB10744
6/29/2020536 MB10131
6/29/2020582 MB9423