YoungCourtesans 20-06-02 Lizi Smoke 480p MP4-XXX

Torrent Details


YoungCourtesans 20-06-02 Lizi Smoke  480p MP4<span style=color:#fc9c6d>-XXX</span>

NAME
YoungCourtesans 20-06-02 Lizi Smoke 480p MP4-XXX.torrent
CATEGORY
Adult
INFOHASH
656246ad8f99f4bae1ab3e8d984fc49bc5bdc7e7
SIZE
236 MB in 2 files
ADDED
Uploaded on 02-06-2020 by our crawler pet called "Spidey".
SWARM
0 seeders & 0 peers
RATING
No votes yet.

Please login to vote for this torrent.


Description

Quote:



******************************Thumbnail:**********************







******************************Screenshots:********************



screenshot 1



screenshot 2



screenshot 3



screenshot 4



screenshot 5



screenshot 6



screenshot 7



screenshot 8



screenshot 9



screenshot 0





******************************************************



YoungCourtesans.20.06.02.Lizi.Smoke..480p.MP4-XXX.LLG.mp4

Format                                   : MPEG-4

Format profile                           : Base Media

Codec ID                                 : isom (isom/iso2/avc1/mp41)

File size                                : 227 MiB

Duration                                 : 30 min 13 s

Overall bit rate mode                    : Variable

Overall bit rate                         : 1 049 kb/s

Writing application                      : Lavf57.83.100



Video

ID                                       : 1

Format                                   : AVC

Format/Info                              : Advanced Video Codec

Format profile                           : [email protected]

Format settings                          : CABAC / 1 Ref Frames

Format settings, CABAC                   : Yes

Format settings, Reference frames        : 1 frame

Codec ID                                 : avc1

Codec ID/Info                            : Advanced Video Coding

Duration                                 : 30 min 13 s

Bit rate mode                            : Variable

Bit rate                                 : 917 kb/s

Maximum bit rate                         : 2 700 kb/s

Width                                    : 854 pixels

Height                                   : 480 pixels

Display aspect ratio                     : 16:9

Original display aspect ratio            : 16:9

Frame rate mode                          : Constant

Frame rate                               : 23.976 (23976/1000) FPS

Original frame rate                      : 23.976 (24000/1001) FPS

Color space                              : YUV

Chroma subsampling                       : 4:2:0

Bit depth                                : 8 bits

Scan type                                : Progressive

Bits/(Pixel*Frame)                       : 0.093

Stream size                              : 198 MiB (87%)

Codec configuration box                  : avcC



Audio

ID                                       : 2

Format                                   : AAC LC

Format/Info                              : Advanced Audio Codec Low Complexity

Codec ID                                 : mp4a-40-2

Duration                                 : 30 min 13 s

Bit rate mode                            : Constant

Bit rate                                 : 128 kb/s

Channel(s)                               : 2 channels

Channel layout                           : L R

Sampling rate                            : 44.1 kHz

Frame rate                               : 43.066 FPS (1024 SPF)

Compression mode                         : Lossy

Stream size                              : 27.6 MiB (12%)

Default                                  : Yes

Alternate group                          : 1











********************************************************

Discussion

Comments 0

Post Your Comment

Files in this torrent

FILENAMESIZE
Sample.mp49.2 MB
YoungCourtesans.20.06.02.Lizi.Smoke..480p.MP4-XXX.LLG.mp4226.9 MB

Alternative Torrents for 'YoungCourtesans Lizi Smoke'.

TORRENT NAMEADDEDSIZESEEDSPEERSHEALTH
6/2/2020464 MB00
6/2/2020246 MB00
6/2/20202.6 GB00
6/2/2020236 MB00
6/2/20202.7 GB00
6/2/2020246 MB00
6/2/2020219 MB00
6/2/2020251 MB00
6/2/20205.3 GB00