Rick And Morty Season 4 - Fiveofseven

Torrent Details

Rick and Morty Season 4 - fiveofseven
Rick and Morty Season 4 - fiveofseven

NAME
Rick and Morty Season 4 - fiveofseven.torrent
CATEGORY
Television
INFOHASH
8d63a2137bba32db709b205f21b85036007744ef
SIZE
877 MB in 20 files
ADDED
Uploaded on 04-06-2020 by our crawler pet called "Spidey".
SWARM
0 seeders & 0 peers
RATING
No votes yet.

Please login to vote for this torrent.


Description







PLOT - An animated series that follows the exploits of

a super scientist and his not-so-bright grandson.











INFO



Encoder: fiveofseven

Source: 1080p.AMZN.WEBRip.DDP5.1.x264-CtrlHD, 1080p.WEB-DL.DD5.1.H264-NOGRP

Rating: TV-MA

Genre: Animation, Adventure, Comedy

Subtitles: English



General

Complete name                            : Rick and Morty S04E01 Edge of Tomorty-Rick, Die, Rickpeat - fiveofseven.mp4

Format                                   : MPEG-4

Codec ID                                 : M4V

File size                                : 87.5 MiB

Duration                                 : 22mn 31s

Overall bit rate mode                    : Variable

Overall bit rate                         : 543 Kbps

Encoded date                             : UTC 2019-11-16 01:32:13

Tagged date                              : UTC 2019-11-16 01:32:13

Writing application                      : My MP4Box GUI 0.6.0.6



Video

ID                                       : 1

Format                                   : AVC

Format/Info                              : Advanced Video Codec

Format profile                           : [email protected]

Format settings, CABAC                   : Yes

Format settings, ReFrames                : 8 frames

Codec ID                                 : avc1

Codec ID/Info                            : Advanced Video Coding

Duration                                 : 22mn 31s

Bit rate                                 : 481 Kbps

Maximum bit rate                         : 3 869 Kbps

Width                                    : 720 pixels

Height                                   : 400 pixels

Display aspect ratio                     : 16:9

Frame rate mode                          : Constant

Frame rate                               : 23.976 fps

Color space                              : YUV

Chroma subsampling                       : 4:2:0

Bit depth                                : 8 bits

Scan type                                : Progressive

Bits/(Pixel*Frame)                       : 0.070

Stream size                              : 77.6 MiB (89%)

Title                                    : ram.mp4

Writing library                          : x264 core 146 r2538 121396c



Audio

ID                                       : 2

Format                                   : AAC

Format/Info                              : Advanced Audio Codec

Format profile                           : LC

Codec ID                                 : 40

Duration                                 : 22mn 31s

Bit rate mode                            : Variable

Bit rate                                 : 57.5 Kbps

Maximum bit rate                         : 91.8 Kbps

Channel count                            : 2 channels

Channel positions                        : Front: L R

Sampling rate                            : 48.0 KHz

Compression mode                         : Lossy

Stream size                              : 9.27 MiB (11%)

Title                                    : aac.mp4

Language                                 : English









Discussion

Comments 0

Post Your Comment

Files in this torrent

FILENAMESIZE
Rick and Morty S04E01 Edge of Tomorty-Rick, Die, Rickpeat - fiveofseven.mp487.5 MB
Rick and Morty S04E01 Edge of Tomorty-Rick, Die, Rickpeat - fiveofseven.srt40.8 KB
Rick and Morty S04E02 The Old Man and the Seat - fiveofseven.mp487.6 MB
Rick and Morty S04E02 The Old Man and the Seat - fiveofseven.srt38.7 KB
Rick and Morty S04E03 One Crew Over the Crewcoo's Morty - fiveofseven.mp487.7 MB
Rick and Morty S04E03 One Crew Over the Crewcoo's Morty - fiveofseven.srt39.7 KB
Rick and Morty S04E04 Claw and Hoarder-Special Ricktim's Morty - fiveofseven.mp487.6 MB
Rick and Morty S04E04 Claw and Hoarder-Special Ricktim's Morty - fiveofseven.srt40.3 KB
Rick and Morty S04E05 Rattlestar Ricklactica - fiveofseven.mp487.7 MB
Rick and Morty S04E05 Rattlestar Ricklactica - fiveofseven.srt35.1 KB
Rick and Morty S04E06 Never Ricking Morty - fiveofseven.mp487.7 MB
Rick and Morty S04E06 Never Ricking Morty - fiveofseven.srt45.7 KB
Rick and Morty S04E07 Promortyus - fiveofseven.mp487.5 MB
Rick and Morty S04E07 Promortyus - fiveofseven.srt35.4 KB
Rick and Morty S04E08 The Vat of Acid - fiveofseven.mp487.8 MB
Rick and Morty S04E08 The Vat of Acid - fiveofseven.srt36.2 KB
Rick and Morty S04E09 Childrick of Mort - fiveofseven.mp487.7 MB
Rick and Morty S04E09 Childrick of Mort - fiveofseven.srt40.5 KB
Rick and Morty S04E10 Star Mort Rickturn of the Jerri - fiveofseven.mp487.7 MB
Rick and Morty S04E10 Star Mort Rickturn of the Jerri - fiveofseven.srt41.4 KB

Alternative Torrents for 'Rick and Morty Season fiveofseven'.

TORRENT NAMEADDEDSIZESEEDSPEERSHEALTH
6/4/2020877 MB00
6/4/2020934 MB00
6/4/20201.1 GB00
6/4/20201.5 GB00