Yi Yi (2000) Criterion (1080p BDRip X265 10bit FLAC 2 0 - R0b0t) [TAoE]

Torrent Details


Yi Yi (2000) Criterion (1080p BDRip x265 10bit FLAC 2 0 - r0b0t) <span style=color:#fc9c6d>[TAoE]</span>

NAME
Yi Yi (2000) Criterion (1080p BDRip x265 10bit FLAC 2 0 - r0b0t) [TAoE].torrent
CATEGORY
Movies
INFOHASH
c182d4f1ba30ae2ddd9eb0352cffd9252b3b86dc
SIZE
8.9 GB in 1 file
ADDED
Uploaded on 06-06-2020 by our crawler pet called "Spidey".
SWARM
5 seeders & 1 peers
RATING
No votes yet.

Please login to vote for this torrent.


Description









Yi Yi (2000) IMDB















Source

Yi.Yi.2000.Criterion.BluRay.Remux.1080p.AVC.FLAC.2.0-HiFi



Media Information

General

Unique ID                   : 331031897955933894121561307021529315409 (0xF90A6CAADB54BF9786B2F09E2A33F851)

Complete name               : Yi Yi (2000) Criterion (1080p BDRip x265 10bit FLAC 2.0 - r0b0t) [TAoE].mkv

Format                      : Matroska

Format version              : Version 4

File size                   : 8.85 GiB

Duration                    : 2 h 53 min

Overall bit rate mode       : Variable

Overall bit rate            : 7 303 kb/s

Writing application         : Lavf58.29.100

Writing library             : Lavf58.29.100

ErrorDetectionType          : Per level 1



Video

ID                          : 1

Format                      : HEVC

Format/Info                 : High Efficiency Video Coding

Format profile              : Main [email protected]@Main

Codec ID                    : V_MPEGH/ISO/HEVC

Duration                    : 2 h 53 min

Bit rate                    : 5 852 kb/s

Width                       : 1 920 pixels

Height                      : 1 080 pixels

Display aspect ratio        : 16:9

Frame rate mode             : Constant

Frame rate                  : 23.976 (24000/1001) FPS

Color space                 : YUV

Chroma subsampling          : 4:2:0

Bit depth                   : 10 bits

Bits/(Pixel*Frame)          : 0.118

Stream size                 : 7.09 GiB (80%)

Title                       : Encoded by r0b0t for TAoE using Shinguru V1.2

Writing library             : x265 3.2+35-acc5d16999e2:[Windows][GCC 9.2.1][64 bit] 10bit

Encoding settings           : cpuid=1111039 / frame-threads=5 / numa-pools=12,12,12,12 / wpp / no-pmode / no-pme / no-psnr / no-ssim / log-level=2 / input-csp=1 / input-res=1920x1080 / interlace=0 / total-frames=0 / level-idc=0 / high-tier=1 / uhd-bd=0 / ref=4 / no-allow-non-conformance / no-repeat-headers / annexb / no-aud / no-hrd / info / hash=0 / no-temporal-layers / open-gop / min-keyint=23 / keyint=250 / gop-lookahead=0 / bframes=8 / b-adapt=2 / b-pyramid / bframe-bias=0 / rc-lookahead=80 / lookahead-slices=4 / scenecut=40 / hist-scenecut=0 / radl=0 / no-splice / no-intra-refresh / ctu=64 / min-cu-size=8 / no-rect / no-amp / max-tu-size=32 / tu-inter-depth=1 / tu-intra-depth=1 / limit-tu=0 / rdoq-level=2 / dynamic-rd=0.00 / no-ssim-rd / signhide / no-tskip / nr-intra=0 / nr-inter=0 / no-constrained-intra / no-strong-intra-smoothing / max-merge=3 / limit-refs=3 / limit-modes / me=3 / subme=5 / merange=57 / temporal-mvp / no-frame-dup / no-hme / weightp / no-weightb / no-analyze-src-pics / deblock=0:0 / sao / no-sao-non-deblock / rd=4 / selective-sao=4 / no-early-skip / rskip / no-fast-intra / no-tskip-fast / no-cu-lossless / no-b-intra / no-splitrd-skip / rdpenalty=0 / psy-rd=1.30 / psy-rdoq=2.00 / no-rd-refine / no-lossless / cbqpoffs=0 / crqpoffs=0 / rc=crf / crf=20.0 / qcomp=0.60 / qpstep=4 / stats-write=0 / stats-read=0 / ipratio=1.40 / pbratio=1.30 / aq-mode=4 / aq-strength=1.10 / cutree / zone-count=0 / no-strict-cbr / qg-size=32 / no-rc-grain / qpmax=69 / qpmin=0 / no-const-vbv / sar=1 / overscan=0 / videoformat=5 / range=0 / colorprim=2 / transfer=2 / colormatrix=2 / chromaloc=0 / display-window=0 / cll=0,0 / min-luma=0 / max-luma=1023 / log2-max-poc-lsb=8 / vui-timing-info / vui-hrd-info / slices=1 / no-opt-qp-pps / no-opt-ref-list-length-pps / no-multi-pass-opt-rps / scenecut-bias=0.05 / hist-threshold=0.01 / no-opt-cu-delta-qp / no-aq-motion / no-hdr10 / no-hdr10-opt / no-dhdr10-opt / no-idr-recovery-sei / analysis-reuse-level=0 / analysis-save-reuse-level=0 / analysis-load-reuse-level=0 / scale-factor=0 / refine-intra=0 / refine-inter=0 / refine-mv=1 / refine-ctu-distortion=0 / no-limit-sao / ctu-info=0 / no-lowpass-dct / refine-analysis-type=0 / copy-pic=1 / max-ausize-factor=1.0 / no-dynamic-refine / no-single-sei / no-hevc-aq / no-svt / no-field / qp-adaptation-range=1.00 / no-scenecut-aware-qpconformance-window-offsets / right=0 / bottom=0

Default                     : Yes

Forced                      : No

Color range                 : Limited



Audio #1

ID                          : 2

Format                      : FLAC

Format/Info                 : Free Lossless Audio Codec

Codec ID                    : A_FLAC

Duration                    : 2 h 53 min

Bit rate mode               : Variable

Bit rate                    : 1 231 kb/s

Channel(s)                  : 2 channels

Channel layout              : L R

Sampling rate               : 48.0 kHz

Frame rate                  : 11.719 FPS (4096 SPF)

Bit depth                   : 24 bits

Compression mode            : Lossless

Stream size                 : 1.49 GiB (17%)

Language                    : Chinese

Default                     : Yes

Forced                      : No



Audio #2

ID                          : 3

Format                      : AC-3

Format/Info                 : Audio Coding 3

Commercial name             : Dolby Digital

Codec ID                    : A_AC3

Duration                    : 2 h 53 min

Bit rate mode               : Constant

Bit rate                    : 192 kb/s

Channel(s)                  : 2 channels

Channel layout              : L R

Sampling rate               : 48.0 kHz

Frame rate                  : 31.250 FPS (1536 SPF)

Bit depth                   : 32 bits

Compression mode            : Lossy

Stream size                 : 238 MiB (3%)

Title                       : Commentary by Edward Yang and Tony Rayns / Dolby Digital Audio / 2.0 / 48 kHz / 192 kbps

Language                    : English

Service kind                : Complete Main

Default                     : No

Forced                      : No



Text

ID                          : 4

Format                      : PGS

Codec ID                    : S_HDMV/PGS

Codec ID/Info               : Picture based subtitle format used on BDs/HD-DVDs

Duration                    : 2 h 51 min

Bit rate                    : 24.7 kb/s

Count of elements           : 2974

Stream size                 : 30.4 MiB (0%)

Language                    : English

Default                     : Yes

Forced                      : No



Menu

00:00:00.000                : :Double Happiness

00:03:49.479                : :The Jians

00:08:00.647                : :Luckiest Day

00:15:49.198                : :Family Emergency

00:19:45.351                : :Old Man

00:22:44.113                : :Honest Talk

00:29:18.423                : :Harsh Realities

00:38:16.336                : :Growth Potential

00:43:15.718                : :Man Trouble

00:48:35.913                : :First Time

00:57:55.847                : :Every Day

01:01:23.305                : :Half-Truths

01:11:41.214                : :Art Appreciation

01:14:27.963                : :Missed Signals

01:19:56.625                : :Cleaned Out

01:23:41.600                : :New Beginnings

01:30:55.784                : :Precious Harmony

01:35:34.979                : :Lucky Guy

01:41:20.658                : :Serious Interest

01:44:44.320                : :"His Music"

01:47:08.297                : :Finding Ways

01:55:44.271                : :Getting Ready

02:00:05.907                : :"Only You"

02:05:48.833                : :Two Keys

02:14:57.548                : :No Tricks

02:22:30.250                : :Back Home

02:26:43.837                : :In Alignment

02:31:11.562                : :"So Unfair"

02:35:20.353                : :Peaceful Appearance

02:43:07.319                : :Same Things

02:45:56.488                : :Already Known



Source Information

General

Unique ID                   : 190653849545722864837183650449072700995 (0x8F6E98856257D10214298E6823C5BE43)

Complete name               : Yi.Yi.2000.Criterion.BluRay.Remux.1080p.AVC.FLAC.2.0-HiFi.mkv

Format                      : Matroska

Format version              : Version 4

File size                   : 36.9 GiB

Duration                    : 2 h 53 min

Overall bit rate mode       : Variable

Overall bit rate            : 30.4 Mb/s

Encoded date                : UTC 2014-02-16 13:42:52

Writing application         : mkvmerge v6.7.0 ('Back to the Ground') 64bit built on Jan  8 2014 14:31:51

Writing library             : libebml v1.3.0 + libmatroska v1.4.1



Video

ID                          : 1

Format                      : AVC

Format/Info                 : Advanced Video Codec

Format profile              : [email protected]

Format settings             : CABAC / 4 Ref Frames

Format settings, CABAC      : Yes

Format settings, Reference  : 4 frames

Codec ID                    : V_MPEG4/ISO/AVC

Duration                    : 2 h 53 min

Bit rate mode               : Variable

Maximum bit rate            : 37.0 Mb/s

Width                       : 1 920 pixels

Height                      : 1 080 pixels

Display aspect ratio        : 16:9

Frame rate mode             : Constant

Frame rate                  : 23.976 (24000/1001) FPS

Color space                 : YUV

Chroma subsampling          : 4:2:0

Bit depth                   : 8 bits

Scan type                   : Progressive

Title                       : MPEG-4 AVC Video / 28993 kbps / 1080p / 23.976 fps / 16:9 / High Profile 4.1

Default                     : Yes

Forced                      : No



Audio #1

ID                          : 2

Format                      : FLAC

Format/Info                 : Free Lossless Audio Codec

Codec ID                    : A_FLAC

Duration                    : 2 h 53 min

Bit rate mode               : Variable

Channel(s)                  : 2 channels

Channel layout              : L R

Sampling rate               : 48.0 kHz

Bit depth                   : 24 bits

Compression mode            : Lossless

Writing library             : libFLAC 1.2.1 (UTC 2007-09-17)

Language                    : Chinese

Default                     : Yes

Forced                      : No



Audio #2

ID                          : 3

Format                      : AC-3

Format/Info                 : Audio Coding 3

Commercial name             : Dolby Digital

Codec ID                    : A_AC3

Duration                    : 2 h 53 min

Bit rate mode               : Constant

Bit rate                    : 192 kb/s

Channel(s)                  : 2 channels

Channel layout              : L R

Sampling rate               : 48.0 kHz

Frame rate                  : 31.250 FPS (1536 SPF)

Compression mode            : Lossy

Stream size                 : 238 MiB (1%)

Title                       : Commentary by Edward Yang and Tony Rayns / Dolby Digital Audio / 2.0 / 48 kHz / 192 kbps

Language                    : English

Service kind                : Complete Main

Default                     : No

Forced                      : No



Text

ID                          : 4

Format                      : PGS

Muxing mode                 : zlib

Codec ID                    : S_HDMV/PGS

Codec ID/Info               : Picture based subtitle format used on BDs/HD-DVDs

Language                    : English

Default                     : Yes

Forced                      : No



Menu

00:00:00.000                : en:Double Happiness

00:03:49.479                : en:The Jians

00:08:00.647                : en:Luckiest Day

00:15:49.198                : en:Family Emergency

00:19:45.351                : en:Old Man

00:22:44.113                : en:Honest Talk

00:29:18.423                : en:Harsh Realities

00:38:16.336                : en:Growth Potential

00:43:15.718                : en:Man Trouble

00:48:35.913                : en:First Time

00:57:55.847                : en:Every Day

01:01:23.305                : en:Half-Truths

01:11:41.214                : en:Art Appreciation

01:14:27.963                : en:Missed Signals

01:19:56.625                : en:Cleaned Out

01:23:41.600                : en:New Beginnings

01:30:55.784                : en:Precious Harmony

01:35:34.979                : en:Lucky Guy

01:41:20.658                : en:Serious Interest

01:44:44.320                : en:"His Music"

01:47:08.297                : en:Finding Ways

01:55:44.271                : en:Getting Ready

02:00:05.907                : en:"Only You"

02:05:48.833                : en:Two Keys

02:14:57.548                : en:No Tricks

02:22:30.250                : en:Back Home

02:26:43.837                : en:In Alignment

02:31:11.562                : en:"So Unfair"

02:35:20.353                : en:Peaceful Appearance

02:43:07.319                : en:Same Things

02:45:56.488                : en:Already Known



Hello everyone,

We are TAoE, a small team of passionate encoders who love encoding. We try our best to provide you with high quality releases.



Requests for movies and shows are welcome.

We have a form for encode requests which can be found here

Encode requests form

submit your request and it will be added to our encoding request list

You can view our encoding request list here

Encode requests list





When or if we encode it will depend on if we can obtain a good source to encode with and

if one of the TAoE encoders chooses to encode it. Unfortunately we are not able to encode everything,

new members are welcome as that helps us encode more content!



If you would like to join TAoE submit your request here!

TAoE member applications form









.........................................................................................................................................

Discussion

Comments 0

Post Your Comment

Files in this torrent

FILENAMESIZE
Yi Yi (2000) Criterion (1080p BDRip x265 10bit FLAC 2.0 - r0b0t) [TAoE].mkv8.9 GB

Alternative Torrents for 'Yi Yi Criterion bit FLAC rbt'.

TORRENT NAMEADDEDSIZESEEDSPEERSHEALTH
10/25/202018.9 GB11228
10/15/2020381 MB953
11/13/2020974 MB706
11/21/20201.6 GB6420
10/25/20201.5 GB613
10/6/2020913 MB590
11/22/2020746 MB5719
10/23/20207 MB550
Yesterday905 MB5313
11/22/2020812 MB5337
Yesterday1.1 GB5227
11/22/2020943 MB4821
10/30/2020816 MB474
6/4/202035 MB470
11/20/20203.3 GB465