Mission Impossible Ghost Protocol 2011 BRRip XviD B4ND1T69

Torrent Details

Mission Impossible Ghost Protocol 2011 BRRip XviD<span style=color:#fc9c6d> B4ND1T69</span>
Mission Impossible Ghost Protocol 2011 BRRip XviD<span style=color:#fc9c6d> B4ND1T69</span>

NAME
Mission Impossible Ghost Protocol 2011 BRRip XviD B4ND1T69.torrent
CATEGORY
Movies
INFOHASH
cd100c8afdf5943763dee3ee5f38d2d4fb78f9fb
SIZE
1.6 GB in 4 files
ADDED
Uploaded on 06-06-2020 by our crawler pet called "Spidey".
SWARM
0 seeders & 0 peers
RATING
No votes yet.

Please login to vote for this torrent.


Description

Mission.Impossible.Ghost.Protocol.2011.BRRip.XviD.B4ND1T69







Director: Brad Bird

Writers: Bruce Geller (television series "Mission: Impossible"), Josh Appelbaum

Stars: Tom Cruise, Jeremy Renner, Simon Pegg



Plot/Story:

The IMF is shut down when it's implicated in the bombing of the Kremlin, causing Ethan Hunt and his new team to go rogue to clear their organization's name.



General

Complete name               : Mission.Impossible.Ghost.Protocol.2011.BRRip.XviD.B4ND1T69.avi

Format                      : AVI

Format/Info                 : Audio Video Interleave

File size                   : 1.62 GiB

Duration                    : 2 h 12 min

Overall bit rate            : 1 741 kb/s

Subtitles                   : Yes...Hardcoded for non-English parts + file included(HI)



Video

ID                          : 0

Format                      : MPEG-4 Visual

Format profile              : Advanced [email protected]

Format settings, BVOP       : 2

Format settings, QPel       : No

Format settings, GMC        : No warppoints

Format settings, Matrix     : Default (H.263)

Codec ID                    : XVID

Codec ID/Hint               : XviD

Duration                    : 2 h 12 min

Bit rate                    : 1 600 kb/s

Width                       : 720 pixels

Height                      : 304 pixels

Display aspect ratio        : 2.35:1

Frame rate                  : 23.976 (24000/1001) FPS

Color space                 : YUV

Chroma subsampling          : 4:2:0

Bit depth                   : 8 bits

Scan type                   : Progressive

Compression mode            : Lossy

Bits/(Pixel*Frame)          : 0.305

Stream size                 : 1.49 GiB (92%)

Writing library             : XviD 64



Audio

ID                          : 1

Format                      : MPEG Audio

Format version              : Version 1

Format profile              : Layer 3

Codec ID                    : 55

Codec ID/Hint               : MP3

Duration                    : 2 h 12 min

Bit rate mode               : Constant

Bit rate                    : 128 kb/s

Channel(s)                  : 2 channels

Sampling rate               : 48.0 kHz

Compression mode            : Lossy

Stream size                 : 122 MiB (7%)

Alignment                   : Aligned on interleaves

Interleave, duration        : 24  ms (0.58 video frame)



Screenshots:



















Please Seed For As Long As Possible

Or At Least 1:1 Ratio...Thanks

Enjoy Peeps

Discussion

Comments 0

Post Your Comment

Files in this torrent

FILENAMESIZE
1337x text file.txt61 B
Downloaded from katcr.co.txt139 B
Mission.Impossible.Ghost.Protocol.2011.BRRip.XviD.B4ND1T69.avi1.6 GB
Mission.Impossible.Ghost.Protocol.2011.BRRip.XviD.B4ND1T69.srt99.4 KB

Alternative Torrents for 'Mission Impossible Ghost Protocol'.

TORRENT NAMEADDEDSIZESEEDSPEERSHEALTH
8/22/20201.9 GB75
11/15/20201.5 GB00
7/14/20209.5 GB00
6/6/20201.6 GB00
6/5/20202.5 GB00
6/2/20202.9 GB00
4/24/2020497 MB00
4/21/20201.8 GB00
4/19/20202.1 GB00
3/21/20201.7 GB00
2/8/2020850 MB00
12/20/20192.5 GB00
4/28/20191.2 GB00
4/28/20191.4 GB00
1/31/20192.9 GB00