Capone 2020 1080p BluRay X265

Torrent Details

Capone 2020 1080p BluRay x265
Capone 2020 1080p BluRay x265

NAME
Capone 2020 1080p BluRay x265.torrent
CATEGORY
Movies
INFOHASH
6353b3ceba801f6b6850b7c412ba8b7a3203cd39
SIZE
1.3 GB in 2 files
ADDED
Uploaded on 07-06-2020 by our crawler pet called "Spidey".
SWARM
0 seeders & 0 peers
RATING
No votes yet.

Please login to vote for this torrent.


Description

Quote:



******************************Thumbnail:**********************







******************************Screenshots:********************



screenshot 1



screenshot 2



screenshot 3



screenshot 4



screenshot 5



screenshot 6



screenshot 7



screenshot 8



screenshot 9



screenshot 0





******************************************************



Capone.2020.1080p.BluRay.x265.LLG.mp4

Format                                   : MPEG-4

Format profile                           : Base Media

Codec ID                                 : isom (isom/iso2/avc1/mp41)

File size                                : 1.29 GiB

Duration                                 : 1 h 43 min

Overall bit rate mode                    : Variable

Overall bit rate                         : 1 776 kb/s

Writing application                      : Lavf57.83.100





Video

ID                                       : 1

Format                                   : AVC

Format/Info                              : Advanced Video Codec

Format profile                           : [email protected]

Format settings                          : CABAC / 1 Ref Frames

Format settings, CABAC                   : Yes

Format settings, Reference frames        : 1 frame

Codec ID                                 : avc1

Codec ID/Info                            : Advanced Video Coding

Duration                                 : 1 h 43 min

Bit rate mode                            : Variable

Bit rate                                 : 1 514 kb/s

Maximum bit rate                         : 4 500 kb/s

Width                                    : 1 920 pixels

Height                                   : 800 pixels

Display aspect ratio                     : 2.40:1

Frame rate mode                          : Constant

Frame rate                               : 23.976 (23976/1000) FPS

Color space                              : YUV

Chroma subsampling                       : 4:2:0

Bit depth                                : 8 bits

Scan type                                : Progressive

Bits/(Pixel*Frame)                       : 0.041

Stream size                              : 1.10 GiB (85%)

Codec configuration box                  : avcC



Audio

ID                                       : 2

Format                                   : AAC LC

Format/Info                              : Advanced Audio Codec Low Complexity

Codec ID                                 : mp4a-40-2

Duration                                 : 1 h 43 min

Bit rate mode                            : Constant

Bit rate                                 : 257 kb/s

Channel(s)                               : 6 channels

Channel layout                           : C L R Ls Rs LFE

Sampling rate                            : 48.0 kHz

Frame rate                               : 46.875 FPS (1024 SPF)

Compression mode                         : Lossy

Stream size                              : 191 MiB (14%)

Language                                 : English

Default                                  : Yes

Alternate group                          : 1











********************************************************

Discussion

Comments 0

Post Your Comment

Files in this torrent

FILENAMESIZE
Capone.2020.1080p.BluRay.x265.LLG.mp41.3 GB
Sample.mp416.1 MB

Alternative Torrents for 'Capone BluRay'.

TORRENT NAMEADDEDSIZESEEDSPEERSHEALTH
8/3/20202.1 GB42
7/23/20203.6 GB00
7/21/20208.3 GB00
7/21/20208.3 GB00
7/21/20203.6 GB00
6/7/20201 GB00
6/7/20201.3 GB00
5/29/20202 GB00
5/28/20209.4 GB00
5/28/20209.6 GB00
5/28/20205.1 GB00
5/28/20206.4 GB00
5/28/20202 GB00
5/28/20201.3 GB00
5/28/202011.6 GB00