Ouija Shark 2020 1080p WEB-DL AAC2 0

Torrent Details

Ouija Shark 2020 1080p WEB-DL AAC2 0
Ouija Shark 2020 1080p WEB-DL AAC2 0

NAME
Ouija Shark 2020 1080p WEB-DL AAC2 0.torrent
CATEGORY
Movies
INFOHASH
26c361dfa109ac5ded0a6dcb24b7d5c356a0b252
SIZE
1.7 GB in 2 files
ADDED
Uploaded on 07-06-2020 by our crawler pet called "Spidey".
SWARM
0 seeders & 1 peers
RATING
No votes yet.

Please login to vote for this torrent.


Description

Quote:



******************************Thumbnail:**********************







******************************Screenshots:********************



screenshot 1



screenshot 2



screenshot 3



screenshot 4



screenshot 5



screenshot 6



screenshot 7



screenshot 8



screenshot 9



screenshot 0





******************************************************



Ouija.Shark.2020.1080p.WEB-DL.AAC2.0.LLG.mp4

Format                                   : MPEG-4

Format profile                           : Base Media

Codec ID                                 : isom (isom/iso2/avc1/mp41)

File size                                : 1.72 GiB

Duration                                 : 1 h 10 min

Overall bit rate mode                    : Variable

Overall bit rate                         : 3 510 kb/s

Writing application                      : Lavf57.83.100



Video

ID                                       : 1

Format                                   : AVC

Format/Info                              : Advanced Video Codec

Format profile                           : [email protected]

Format settings                          : CABAC / 1 Ref Frames

Format settings, CABAC                   : Yes

Format settings, Reference frames        : 1 frame

Codec ID                                 : avc1

Codec ID/Info                            : Advanced Video Coding

Duration                                 : 1 h 10 min

Bit rate mode                            : Variable

Bit rate                                 : 3 375 kb/s

Maximum bit rate                         : 10.5 Mb/s

Width                                    : 1 920 pixels

Height                                   : 1 080 pixels

Display aspect ratio                     : 16:9

Frame rate mode                          : Constant

Frame rate                               : 23.976 (23976/1000) FPS

Color space                              : YUV

Chroma subsampling                       : 4:2:0

Bit depth                                : 8 bits

Scan type                                : Progressive

Bits/(Pixel*Frame)                       : 0.068

Stream size                              : 1.65 GiB (96%)

Codec configuration box                  : avcC



Audio

ID                                       : 2

Format                                   : AAC LC

Format/Info                              : Advanced Audio Codec Low Complexity

Codec ID                                 : mp4a-40-2

Duration                                 : 1 h 10 min

Bit rate mode                            : Constant

Bit rate                                 : 132 kb/s

Channel(s)                               : 2 channels

Channel layout                           : L R

Sampling rate                            : 48.0 kHz

Frame rate                               : 46.875 FPS (1024 SPF)

Compression mode                         : Lossy

Stream size                              : 65.1 MiB (4%)

Title                                    : English

Language                                 : English

Default                                  : Yes

Alternate group                          : 1









********************************************************

Discussion

Comments 0

Post Your Comment

Files in this torrent

FILENAMESIZE
Ouija.Shark.2020.1080p.WEB-DL.AAC2.0.LLG.mp41.7 GB
Sample.mp432 MB

Alternative Torrents for 'Ouija Shark AAC'.

TORRENT NAMEADDEDSIZESEEDSPEERSHEALTH
5/29/2020796 MB23
11/15/2020627 MB00