Monster House (2006) (1080p BDRip X265 10bit DTS-HD MA 5.1 - R0b0t) [TAoE]

Torrent Details

Monster House (2006) (1080p BDRip x265 10bit DTS-HD MA 5.1 - r0b0t) <span style=color:#fc9c6d>[TAoE]</span>
Monster House (2006) (1080p BDRip x265 10bit DTS-HD MA 5.1 - r0b0t) <span style=color:#fc9c6d>[TAoE]</span>

NAME
Monster House (2006) (1080p BDRip x265 10bit DTS-HD MA 5.1 - r0b0t) [TAoE].torrent
CATEGORY
Movies
INFOHASH
d93349ceff75fabf6e7f00288e9f521768d8c567
SIZE
5.2 GB in 1 file
ADDED
Uploaded on 07-06-2020 by our crawler pet called "Spidey".
SWARM
0 seeders & 0 peers
RATING
No votes yet.

Please login to vote for this torrent.


Description









Monster House (2006) IMDB















Source

Monster.House.2006.EUR.BluRay.Remux.1080p.AVC.DTS-HD.MA.5.1-HiFi



Media Information

General

Unique ID                   : 2433404038312394865932862194667878746 (0x1D4A814FFB8420CECC773281CB5F95A)

Complete name               : Monster House (2006) (1080p BDRip x265 10bit DTS-HD MA 5.1 - r0b0t) [TAoE].mkv

Format                      : Matroska

Format version              : Version 4

File size                   : 5.17 GiB

Duration                    : 1 h 30 min

Overall bit rate mode       : Variable

Overall bit rate            : 8 158 kb/s

Writing application         : Lavf58.29.100

Writing library             : Lavf58.29.100

ErrorDetectionType          : Per level 1



Video

ID                          : 1

Format                      : HEVC

Format/Info                 : High Efficiency Video Coding

Format profile              : Main [email protected]@Main

Codec ID                    : V_MPEGH/ISO/HEVC

Duration                    : 1 h 30 min

Bit rate                    : 4 203 kb/s

Width                       : 1 920 pixels

Height                      : 1 080 pixels

Display aspect ratio        : 16:9

Frame rate mode             : Constant

Frame rate                  : 23.976 (24000/1001) FPS

Color space                 : YUV

Chroma subsampling          : 4:2:0

Bit depth                   : 10 bits

Bits/(Pixel*Frame)          : 0.085

Stream size                 : 2.66 GiB (52%)

Title                       : Encoded by r0b0t for TAoE using Shinguru V1.2

Writing library             : x265 3.2+35-acc5d16999e2:[Windows][GCC 9.2.1][64 bit] 10bit

Encoding settings           : cpuid=1111039 / frame-threads=5 / numa-pools=12,12,12,12 / wpp / no-pmode / no-pme / no-psnr / no-ssim / log-level=2 / input-csp=1 / input-res=1920x1080 / interlace=0 / total-frames=0 / level-idc=0 / high-tier=1 / uhd-bd=0 / ref=4 / no-allow-non-conformance / no-repeat-headers / annexb / no-aud / no-hrd / info / hash=0 / no-temporal-layers / open-gop / min-keyint=23 / keyint=250 / gop-lookahead=0 / bframes=8 / b-adapt=2 / b-pyramid / bframe-bias=0 / rc-lookahead=80 / lookahead-slices=4 / scenecut=40 / hist-scenecut=0 / radl=0 / no-splice / no-intra-refresh / ctu=64 / min-cu-size=8 / no-rect / no-amp / max-tu-size=32 / tu-inter-depth=1 / tu-intra-depth=1 / limit-tu=0 / rdoq-level=2 / dynamic-rd=0.00 / no-ssim-rd / signhide / no-tskip / nr-intra=0 / nr-inter=0 / no-constrained-intra / no-strong-intra-smoothing / max-merge=3 / limit-refs=3 / limit-modes / me=3 / subme=5 / merange=57 / temporal-mvp / no-frame-dup / no-hme / weightp / no-weightb / no-analyze-src-pics / deblock=0:0 / sao / no-sao-non-deblock / rd=4 / selective-sao=4 / no-early-skip / rskip / no-fast-intra / no-tskip-fast / no-cu-lossless / no-b-intra / no-splitrd-skip / rdpenalty=0 / psy-rd=1.30 / psy-rdoq=2.00 / no-rd-refine / no-lossless / cbqpoffs=0 / crqpoffs=0 / rc=crf / crf=19.0 / qcomp=0.60 / qpstep=4 / stats-write=0 / stats-read=0 / ipratio=1.40 / pbratio=1.30 / aq-mode=4 / aq-strength=1.10 / cutree / zone-count=0 / no-strict-cbr / qg-size=32 / no-rc-grain / qpmax=69 / qpmin=0 / no-const-vbv / sar=1 / overscan=0 / videoformat=5 / range=0 / colorprim=2 / transfer=2 / colormatrix=2 / chromaloc=0 / display-window=0 / cll=0,0 / min-luma=0 / max-luma=1023 / log2-max-poc-lsb=8 / vui-timing-info / vui-hrd-info / slices=1 / no-opt-qp-pps / no-opt-ref-list-length-pps / no-multi-pass-opt-rps / scenecut-bias=0.05 / hist-threshold=0.01 / no-opt-cu-delta-qp / no-aq-motion / no-hdr10 / no-hdr10-opt / no-dhdr10-opt / no-idr-recovery-sei / analysis-reuse-level=0 / analysis-save-reuse-level=0 / analysis-load-reuse-level=0 / scale-factor=0 / refine-intra=0 / refine-inter=0 / refine-mv=1 / refine-ctu-distortion=0 / no-limit-sao / ctu-info=0 / no-lowpass-dct / refine-analysis-type=0 / copy-pic=1 / max-ausize-factor=1.0 / no-dynamic-refine / no-single-sei / no-hevc-aq / no-svt / no-field / qp-adaptation-range=1.00 / no-scenecut-aware-qpconformance-window-offsets / right=0 / bottom=0

Language                    : English

Default                     : Yes

Forced                      : No

Color range                 : Limited



Audio #1

ID                          : 2

Format                      : DTS XLL

Format/Info                 : Digital Theater Systems

Commercial name             : DTS-HD Master Audio

Codec ID                    : A_DTS

Duration                    : 1 h 30 min

Bit rate mode               : Variable

Bit rate                    : 2 603 kb/s

Channel(s)                  : 6 channels

Channel layout              : C L R Ls Rs LFE

Sampling rate               : 48.0 kHz

Frame rate                  : 93.750 FPS (512 SPF)

Bit depth                   : 24 bits

Compression mode            : Lossless

Stream size                 : 1.65 GiB (32%)

Language                    : English

Default                     : Yes

Forced                      : No



Audio #2

ID                          : 3

Format                      : AC-3

Format/Info                 : Audio Coding 3

Commercial name             : Dolby Digital

Codec ID                    : A_AC3

Duration                    : 1 h 30 min

Bit rate mode               : Constant

Bit rate                    : 192 kb/s

Channel(s)                  : 2 channels

Channel layout              : L R

Sampling rate               : 48.0 kHz

Frame rate                  : 31.250 FPS (1536 SPF)

Bit depth                   : 32 bits

Compression mode            : Lossy

Stream size                 : 124 MiB (2%)

Title                       : Commentary by Director Gil Kenan and Guests / Dolby Digital Audio / 2.0 / 48 kHz / 192 kbps

Language                    : English

Service kind                : Complete Main

Default                     : No

Forced                      : No



Text #1

ID                          : 4

Format                      : PGS

Codec ID                    : S_HDMV/PGS

Codec ID/Info               : Picture based subtitle format used on BDs/HD-DVDs

Duration                    : 1 h 28 min

Bit rate                    : 25.9 kb/s

Count of elements           : 1976

Stream size                 : 16.4 MiB (0%)

Language                    : English

Default                     : No

Forced                      : No



Text #2

ID                          : 5

Format                      : PGS

Codec ID                    : S_HDMV/PGS

Codec ID/Info               : Picture based subtitle format used on BDs/HD-DVDs

Duration                    : 1 h 29 min

Bit rate                    : 33.0 kb/s

Count of elements           : 2929

Stream size                 : 21.1 MiB (0%)

Title                       : SDH

Language                    : English

Default                     : No

Forced                      : No



Text #3

ID                          : 6

Format                      : PGS

Codec ID                    : S_HDMV/PGS

Codec ID/Info               : Picture based subtitle format used on BDs/HD-DVDs

Duration                    : 1 h 28 min

Bit rate                    : 13.9 kb/s

Count of elements           : 2008

Stream size                 : 8.79 MiB (0%)

Language                    : Arabic

Default                     : No

Forced                      : No



Text #4

ID                          : 7

Format                      : PGS

Codec ID                    : S_HDMV/PGS

Codec ID/Info               : Picture based subtitle format used on BDs/HD-DVDs

Duration                    : 1 h 28 min

Bit rate                    : 21.5 kb/s

Count of elements           : 1942

Stream size                 : 13.7 MiB (0%)

Language                    : Bulgarian

Default                     : No

Forced                      : No



Text #5

ID                          : 8

Format                      : PGS

Codec ID                    : S_HDMV/PGS

Codec ID/Info               : Picture based subtitle format used on BDs/HD-DVDs

Duration                    : 1 h 28 min

Bit rate                    : 39.1 kb/s

Count of elements           : 2012

Stream size                 : 24.7 MiB (0%)

Title                       : Cantonese

Language                    : Chinese

Default                     : No

Forced                      : No



Text #6

ID                          : 9

Format                      : PGS

Codec ID                    : S_HDMV/PGS

Codec ID/Info               : Picture based subtitle format used on BDs/HD-DVDs

Duration                    : 1 h 28 min

Bit rate                    : 23.3 kb/s

Count of elements           : 1998

Stream size                 : 14.7 MiB (0%)

Language                    : Croatian

Default                     : No

Forced                      : No



Text #7

ID                          : 10

Format                      : PGS

Codec ID                    : S_HDMV/PGS

Codec ID/Info               : Picture based subtitle format used on BDs/HD-DVDs

Duration                    : 1 h 28 min

Bit rate                    : 25.4 kb/s

Count of elements           : 2018

Stream size                 : 16.0 MiB (0%)

Language                    : Czech

Default                     : No

Forced                      : No



Text #8

ID                          : 11

Format                      : PGS

Codec ID                    : S_HDMV/PGS

Codec ID/Info               : Picture based subtitle format used on BDs/HD-DVDs

Duration                    : 1 h 28 min

Bit rate                    : 23.8 kb/s

Count of elements           : 1640

Stream size                 : 15.1 MiB (0%)

Language                    : Danish

Default                     : No

Forced                      : No



Text #9

ID                          : 12

Format                      : PGS

Codec ID                    : S_HDMV/PGS

Codec ID/Info               : Picture based subtitle format used on BDs/HD-DVDs

Duration                    : 1 h 28 min

Bit rate                    : 25.3 kb/s

Count of elements           : 1952

Stream size                 : 16.0 MiB (0%)

Language                    : Dutch

Default                     : No

Forced                      : No



Text #10

ID                          : 13

Format                      : PGS

Codec ID                    : S_HDMV/PGS

Codec ID/Info               : Picture based subtitle format used on BDs/HD-DVDs

Duration                    : 1 h 28 min

Bit rate                    : 22.9 kb/s

Count of elements           : 2010

Stream size                 : 14.4 MiB (0%)

Language                    : Estonian

Default                     : No

Forced                      : No



Text #11

ID                          : 14

Format                      : PGS

Codec ID                    : S_HDMV/PGS

Codec ID/Info               : Picture based subtitle format used on BDs/HD-DVDs

Duration                    : 1 h 28 min

Bit rate                    : 21.3 kb/s

Count of elements           : 1830

Stream size                 : 13.4 MiB (0%)

Language                    : Finnish

Default                     : No

Forced                      : No



Text #12

ID                          : 15

Format                      : PGS

Codec ID                    : S_HDMV/PGS

Codec ID/Info               : Picture based subtitle format used on BDs/HD-DVDs

Duration                    : 1 h 28 min

Bit rate                    : 19.2 kb/s

Count of elements           : 1786

Stream size                 : 12.2 MiB (0%)

Language                    : French

Default                     : No

Forced                      : No



Text #13

ID                          : 16

Format                      : PGS

Codec ID                    : S_HDMV/PGS

Codec ID/Info               : Picture based subtitle format used on BDs/HD-DVDs

Duration                    : 1 h 28 min

Bit rate                    : 28.8 kb/s

Count of elements           : 2008

Stream size                 : 18.2 MiB (0%)

Language                    : German

Default                     : No

Forced                      : No



Text #14

ID                          : 17

Format                      : PGS

Codec ID                    : S_HDMV/PGS

Codec ID/Info               : Picture based subtitle format used on BDs/HD-DVDs

Duration                    : 1 h 28 min

Bit rate                    : 25.2 kb/s

Count of elements           : 1930

Stream size                 : 15.9 MiB (0%)

Language                    : Greek

Default                     : No

Forced                      : No



Text #15

ID                          : 18

Format                      : PGS

Codec ID                    : S_HDMV/PGS

Codec ID/Info               : Picture based subtitle format used on BDs/HD-DVDs

Duration                    : 1 h 28 min

Bit rate                    : 21.7 kb/s

Count of elements           : 1984

Stream size                 : 13.7 MiB (0%)

Language                    : Hebrew

Default                     : No

Forced                      : No



Text #16

ID                          : 19

Format                      : PGS

Codec ID                    : S_HDMV/PGS

Codec ID/Info               : Picture based subtitle format used on BDs/HD-DVDs

Duration                    : 1 h 28 min

Bit rate                    : 26.0 kb/s

Count of elements           : 2014

Stream size                 : 16.4 MiB (0%)

Language                    : Hindi

Default                     : No

Forced                      : No



Text #17

ID                          : 20

Format                      : PGS

Codec ID                    : S_HDMV/PGS

Codec ID/Info               : Picture based subtitle format used on BDs/HD-DVDs

Duration                    : 1 h 28 min

Bit rate                    : 21.9 kb/s

Count of elements           : 1940

Stream size                 : 13.8 MiB (0%)

Language                    : Hungarian

Default                     : No

Forced                      : No



Text #18

ID                          : 21

Format                      : PGS

Codec ID                    : S_HDMV/PGS

Codec ID/Info               : Picture based subtitle format used on BDs/HD-DVDs

Duration                    : 1 h 22 min

Bit rate                    : 25.1 kb/s

Count of elements           : 1880

Stream size                 : 14.9 MiB (0%)

Language                    : Icelandic

Default                     : No

Forced                      : No



Text #19

ID                          : 22

Format                      : PGS

Codec ID                    : S_HDMV/PGS

Codec ID/Info               : Picture based subtitle format used on BDs/HD-DVDs

Duration                    : 1 h 28 min

Bit rate                    : 29.1 kb/s

Count of elements           : 1962

Stream size                 : 18.5 MiB (0%)

Language                    : Korean

Default                     : No

Forced                      : No



Text #20

ID                          : 23

Format                      : PGS

Codec ID                    : S_HDMV/PGS

Codec ID/Info               : Picture based subtitle format used on BDs/HD-DVDs

Duration                    : 1 h 28 min

Bit rate                    : 24.8 kb/s

Count of elements           : 2010

Stream size                 : 15.6 MiB (0%)

Language                    : Latvian

Default                     : No

Forced                      : No



Text #21

ID                          : 24

Format                      : PGS

Codec ID                    : S_HDMV/PGS

Codec ID/Info               : Picture based subtitle format used on BDs/HD-DVDs

Duration                    : 1 h 22 min

Bit rate                    : 25.4 kb/s

Count of elements           : 1930

Stream size                 : 15.0 MiB (0%)

Language                    : Lithuanian

Default                     : No

Forced                      : No



Text #22

ID                          : 25

Format                      : PGS

Codec ID                    : S_HDMV/PGS

Codec ID/Info               : Picture based subtitle format used on BDs/HD-DVDs

Duration                    : 1 h 28 min

Bit rate                    : 25.8 kb/s

Count of elements           : 1996

Stream size                 : 16.3 MiB (0%)

Language                    : Norwegian

Default                     : No

Forced                      : No



Text #23

ID                          : 26

Format                      : PGS

Codec ID                    : S_HDMV/PGS

Codec ID/Info               : Picture based subtitle format used on BDs/HD-DVDs

Duration                    : 1 h 28 min

Bit rate                    : 22.7 kb/s

Count of elements           : 2010

Stream size                 : 14.4 MiB (0%)

Language                    : Polish

Default                     : No

Forced                      : No



Text #24

ID                          : 27

Format                      : PGS

Codec ID                    : S_HDMV/PGS

Codec ID/Info               : Picture based subtitle format used on BDs/HD-DVDs

Duration                    : 1 h 28 min

Bit rate                    : 40.7 kb/s

Count of elements           : 1958

Stream size                 : 25.9 MiB (0%)

Language                    : Portuguese

Default                     : No

Forced                      : No



Text #25

ID                          : 28

Format                      : PGS

Codec ID                    : S_HDMV/PGS

Codec ID/Info               : Picture based subtitle format used on BDs/HD-DVDs

Duration                    : 1 h 28 min

Bit rate                    : 24.4 kb/s

Count of elements           : 2006

Stream size                 : 15.5 MiB (0%)

Language                    : Romanian

Default                     : No

Forced                      : No



Text #26

ID                          : 29

Format                      : PGS

Codec ID                    : S_HDMV/PGS

Codec ID/Info               : Picture based subtitle format used on BDs/HD-DVDs

Duration                    : 1 h 9 min

Bit rate                    : 262 b/s

Count of elements           : 18

Stream size                 : 134 KiB (0%)

Language                    : Russian

Default                     : No

Forced                      : No



Text #27

ID                          : 30

Format                      : PGS

Codec ID                    : S_HDMV/PGS

Codec ID/Info               : Picture based subtitle format used on BDs/HD-DVDs

Duration                    : 1 h 28 min

Bit rate                    : 23.4 kb/s

Count of elements           : 1986

Stream size                 : 14.8 MiB (0%)

Language                    : Serbian

Default                     : No

Forced                      : No



Text #28

ID                          : 31

Format                      : PGS

Codec ID                    : S_HDMV/PGS

Codec ID/Info               : Picture based subtitle format used on BDs/HD-DVDs

Duration                    : 1 h 28 min

Bit rate                    : 23.6 kb/s

Count of elements           : 2010

Stream size                 : 14.9 MiB (0%)

Language                    : Slovak

Default                     : No

Forced                      : No



Text #29

ID                          : 32

Format                      : PGS

Codec ID                    : S_HDMV/PGS

Codec ID/Info               : Picture based subtitle format used on BDs/HD-DVDs

Duration                    : 1 h 28 min

Bit rate                    : 21.7 kb/s

Count of elements           : 2008

Stream size                 : 13.7 MiB (0%)

Language                    : Slovenian

Default                     : No

Forced                      : No



Text #30

ID                          : 33

Format                      : PGS

Codec ID                    : S_HDMV/PGS

Codec ID/Info               : Picture based subtitle format used on BDs/HD-DVDs

Duration                    : 1 h 28 min

Bit rate                    : 40.3 kb/s

Count of elements           : 1976

Stream size                 : 25.6 MiB (0%)

Language                    : Spanish

Default                     : No

Forced                      : No



Text #31

ID                          : 34

Format                      : PGS

Codec ID                    : S_HDMV/PGS

Codec ID/Info               : Picture based subtitle format used on BDs/HD-DVDs

Duration                    : 1 h 28 min

Bit rate                    : 24.0 kb/s

Count of elements           : 1544

Stream size                 : 15.2 MiB (0%)

Language                    : Swedish

Default                     : No

Forced                      : No



Text #32

ID                          : 35

Format                      : PGS

Codec ID                    : S_HDMV/PGS

Codec ID/Info               : Picture based subtitle format used on BDs/HD-DVDs

Duration                    : 1 h 28 min

Bit rate                    : 36.7 kb/s

Count of elements           : 2010

Stream size                 : 23.2 MiB (0%)

Language                    : Thai

Default                     : No

Forced                      : No



Text #33

ID                          : 36

Format                      : PGS

Codec ID                    : S_HDMV/PGS

Codec ID/Info               : Picture based subtitle format used on BDs/HD-DVDs

Duration                    : 1 h 28 min

Bit rate                    : 27.2 kb/s

Count of elements           : 1900

Stream size                 : 17.2 MiB (0%)

Language                    : Turkish

Default                     : No

Forced                      : No



Text #34

ID                          : 37

Format                      : PGS

Codec ID                    : S_HDMV/PGS

Codec ID/Info               : Picture based subtitle format used on BDs/HD-DVDs

Duration                    : 1 h 28 min

Bit rate                    : 24.0 kb/s

Count of elements           : 2012

Stream size                 : 15.2 MiB (0%)

Language                    : Ukrainian

Default                     : No

Forced                      : No



Text #35

ID                          : 38

Format                      : PGS

Codec ID                    : S_HDMV/PGS

Codec ID/Info               : Picture based subtitle format used on BDs/HD-DVDs

Duration                    : 1 h 30 min

Bit rate                    : 58.2 kb/s

Count of elements           : 2857

Stream size                 : 37.6 MiB (1%)

Title                       : Commentary by Director Gil Kenan and Guests

Language                    : Dutch

Default                     : No

Forced                      : No



Text #36

ID                          : 39

Format                      : PGS

Codec ID                    : S_HDMV/PGS

Codec ID/Info               : Picture based subtitle format used on BDs/HD-DVDs

Duration                    : 1 h 30 min

Bit rate                    : 66.3 kb/s

Count of elements           : 3120

Stream size                 : 42.8 MiB (1%)

Title                       : Commentary by Director Gil Kenan and Guests

Language                    : English

Default                     : No

Forced                      : No



Text #37

ID                          : 40

Format                      : PGS

Codec ID                    : S_HDMV/PGS

Codec ID/Info               : Picture based subtitle format used on BDs/HD-DVDs

Duration                    : 1 h 24 min

Bit rate                    : 57.7 kb/s

Count of elements           : 3006

Stream size                 : 35.1 MiB (1%)

Title                       : Commentary by Director Gil Kenan and Guests

Language                    : French

Default                     : No

Forced                      : No



Text #38

ID                          : 41

Format                      : PGS

Codec ID                    : S_HDMV/PGS

Codec ID/Info               : Picture based subtitle format used on BDs/HD-DVDs

Duration                    : 1 h 30 min

Bit rate                    : 64.5 kb/s

Count of elements           : 3170

Stream size                 : 41.6 MiB (1%)

Title                       : Commentary by Director Gil Kenan and Guests

Language                    : German

Default                     : No

Forced                      : No



Text #39

ID                          : 42

Format                      : PGS

Codec ID                    : S_HDMV/PGS

Codec ID/Info               : Picture based subtitle format used on BDs/HD-DVDs

Duration                    : 1 h 30 min

Bit rate                    : 73.2 kb/s

Count of elements           : 3108

Stream size                 : 47.3 MiB (1%)

Title                       : Commentary by Director Gil Kenan and Guests

Language                    : Korean

Default                     : No

Forced                      : No



Menu

00:03:23.620                : :"Stay Away from My House"

00:06:35.019                : :Nebbercracker's Lawn

00:10:27.376                : :The Key

00:13:36.273                : :Dark Shadows

00:16:45.754                : :Zee and Bones

00:20:24.223                : :Back from the Dead

00:23:59.688                : :Welcome Mat

00:26:36.553                : :A Successful Future

00:30:10.850                : :Scoping It Out

00:33:04.273                : :Getting Technical

00:36:03.327                : :The Cops Are Here

00:39:17.396                : :The Source of Life

00:42:31.382                : :Getting Prepared

00:46:21.028                : :Under Arrest

00:49:50.821                : :Staying Calm

00:53:41.468                : :Monkey Shines

00:56:45.902                : :Balls and Coils

01:00:23.411                : :A Ghost!

01:03:37.522                : :Constance Trouble

01:05:41.354                : :"Let Her Go"

01:08:35.444                : :Gaping Maw

01:11:56.562                : :Under Destruction

01:13:02.461                : :Reassembled

01:15:49.878                : :Dynamite

01:16:55.777                : :When the Smoke Clears

01:17:28.268                : :"We're Free"

01:20:50.262                : :Trick or Treat



Source Information

General

Complete name               : Monster.House.2006.EUR.BluRay.Remux.1080p.AVC.DTS-HD.MA.5.1-HiFi.mkv

Format                      : Matroska

Format version              : Version 4

File size                   : 17.8 GiB

Duration                    : 1 h 30 min

Overall bit rate mode       : Variable

Overall bit rate            : 28.1 Mb/s

Encoded date                : UTC 2019-10-06 02:00:58

Writing application         : mkvmerge v37.0.0 ('Leave It') 64-bit

Writing library             : libebml v1.3.9 + libmatroska v1.5.2



Video

ID                          : 1

Format                      : AVC

Format/Info                 : Advanced Video Codec

Format profile              : [email protected]

Format settings             : CABAC / 2 Ref Frames

Format settings, CABAC      : Yes

Format settings, Reference  : 2 frames

Codec ID                    : V_MPEG4/ISO/AVC

Duration                    : 1 h 30 min

Bit rate mode               : Variable

Bit rate                    : 24.9 Mb/s

Width                       : 1 920 pixels

Height                      : 1 080 pixels

Display aspect ratio        : 16:9

Frame rate mode             : Constant

Frame rate                  : 23.976 (24000/1001) FPS

Color space                 : YUV

Chroma subsampling          : 4:2:0

Bit depth                   : 8 bits

Scan type                   : Progressive

Bits/(Pixel*Frame)          : 0.501

Stream size                 : 15.8 GiB (89%)

Title                       : MPEG-4 AVC Video / 24912 kbps / 1080p / 23.976 fps / 16:9 / High Profile 4.1

Language                    : English

Default                     : Yes

Forced                      : No



Audio #1

ID                          : 2

Format                      : DTS XLL

Format/Info                 : Digital Theater Systems

Commercial name             : DTS-HD Master Audio

Codec ID                    : A_DTS

Duration                    : 1 h 30 min

Bit rate mode               : Variable

Bit rate                    : 2 603 kb/s

Channel(s)                  : 6 channels

Channel layout              : C L R Ls Rs LFE

Sampling rate               : 48.0 kHz

Frame rate                  : 93.750 FPS (512 SPF)

Bit depth                   : 24 bits

Compression mode            : Lossless

Stream size                 : 1.65 GiB (9%)

Language                    : English

Default                     : Yes

Forced                      : No



Audio #2

ID                          : 3

Format                      : AC-3

Format/Info                 : Audio Coding 3

Commercial name             : Dolby Digital

Codec ID                    : A_AC3

Duration                    : 1 h 30 min

Bit rate mode               : Constant

Bit rate                    : 192 kb/s

Channel(s)                  : 2 channels

Channel layout              : L R

Sampling rate               : 48.0 kHz

Frame rate                  : 31.250 FPS (1536 SPF)

Compression mode            : Lossy

Stream size                 : 124 MiB (1%)

Title                       : Commentary by Director Gil Kenan and Guests / Dolby Digital Audio / 2.0 / 48 kHz / 192 kbps

Language                    : English

Service kind                : Complete Main

Default                     : No

Forced                      : No



Text #1

ID                          : 4

Format                      : PGS

Muxing mode                 : zlib

Codec ID                    : S_HDMV/PGS

Codec ID/Info               : Picture based subtitle format used on BDs/HD-DVDs

Duration                    : 1 h 28 min

Bit rate                    : 25.9 kb/s

Count of elements           : 1976

Stream size                 : 16.4 MiB (0%)

Language                    : English

Default                     : No

Forced                      : No



Text #2

ID                          : 5

Format                      : PGS

Muxing mode                 : zlib

Codec ID                    : S_HDMV/PGS

Codec ID/Info               : Picture based subtitle format used on BDs/HD-DVDs

Duration                    : 1 h 29 min

Bit rate                    : 33.0 kb/s

Count of elements           : 2929

Stream size                 : 21.1 MiB (0%)

Title                       : SDH

Language                    : English

Default                     : No

Forced                      : No



Text #3

ID                          : 6

Format                      : PGS

Muxing mode                 : zlib

Codec ID                    : S_HDMV/PGS

Codec ID/Info               : Picture based subtitle format used on BDs/HD-DVDs

Duration                    : 1 h 28 min

Bit rate                    : 13.9 kb/s

Count of elements           : 2008

Stream size                 : 8.79 MiB (0%)

Language                    : Arabic

Default                     : No

Forced                      : No



Text #4

ID                          : 7

Format                      : PGS

Muxing mode                 : zlib

Codec ID                    : S_HDMV/PGS

Codec ID/Info               : Picture based subtitle format used on BDs/HD-DVDs

Duration                    : 1 h 28 min

Bit rate                    : 21.5 kb/s

Count of elements           : 1942

Stream size                 : 13.7 MiB (0%)

Language                    : Bulgarian

Default                     : No

Forced                      : No



Text #5

ID                          : 8

Format                      : PGS

Muxing mode                 : zlib

Codec ID                    : S_HDMV/PGS

Codec ID/Info               : Picture based subtitle format used on BDs/HD-DVDs

Duration                    : 1 h 28 min

Bit rate                    : 39.1 kb/s

Count of elements           : 2012

Stream size                 : 24.7 MiB (0%)

Title                       : Cantonese

Language                    : Chinese

Default                     : No

Forced                      : No



Text #6

ID                          : 9

Format                      : PGS

Muxing mode                 : zlib

Codec ID                    : S_HDMV/PGS

Codec ID/Info               : Picture based subtitle format used on BDs/HD-DVDs

Duration                    : 1 h 28 min

Bit rate                    : 23.3 kb/s

Count of elements           : 1998

Stream size                 : 14.7 MiB (0%)

Language                    : Croatian

Default                     : No

Forced                      : No



Text #7

ID                          : 10

Format                      : PGS

Muxing mode                 : zlib

Codec ID                    : S_HDMV/PGS

Codec ID/Info               : Picture based subtitle format used on BDs/HD-DVDs

Duration                    : 1 h 28 min

Bit rate                    : 25.4 kb/s

Count of elements           : 2018

Stream size                 : 16.0 MiB (0%)

Language                    : Czech

Default                     : No

Forced                      : No



Text #8

ID                          : 11

Format                      : PGS

Muxing mode                 : zlib

Codec ID                    : S_HDMV/PGS

Codec ID/Info               : Picture based subtitle format used on BDs/HD-DVDs

Duration                    : 1 h 28 min

Bit rate                    : 23.8 kb/s

Count of elements           : 1640

Stream size                 : 15.1 MiB (0%)

Language                    : Danish

Default                     : No

Forced                      : No



Text #9

ID                          : 12

Format                      : PGS

Muxing mode                 : zlib

Codec ID                    : S_HDMV/PGS

Codec ID/Info               : Picture based subtitle format used on BDs/HD-DVDs

Duration                    : 1 h 28 min

Bit rate                    : 25.3 kb/s

Count of elements           : 1952

Stream size                 : 16.0 MiB (0%)

Language                    : Dutch

Default                     : No

Forced                      : No



Text #10

ID                          : 13

Format                      : PGS

Muxing mode                 : zlib

Codec ID                    : S_HDMV/PGS

Codec ID/Info               : Picture based subtitle format used on BDs/HD-DVDs

Duration                    : 1 h 28 min

Bit rate                    : 22.9 kb/s

Count of elements           : 2010

Stream size                 : 14.4 MiB (0%)

Language                    : Estonian

Default                     : No

Forced                      : No



Text #11

ID                          : 14

Format                      : PGS

Muxing mode                 : zlib

Codec ID                    : S_HDMV/PGS

Codec ID/Info               : Picture based subtitle format used on BDs/HD-DVDs

Duration                    : 1 h 28 min

Bit rate                    : 21.3 kb/s

Count of elements           : 1830

Stream size                 : 13.4 MiB (0%)

Language                    : Finnish

Default                     : No

Forced                      : No



Text #12

ID                          : 15

Format                      : PGS

Muxing mode                 : zlib

Codec ID                    : S_HDMV/PGS

Codec ID/Info               : Picture based subtitle format used on BDs/HD-DVDs

Duration                    : 1 h 28 min

Bit rate                    : 19.2 kb/s

Count of elements           : 1786

Stream size                 : 12.2 MiB (0%)

Language                    : French

Default                     : No

Forced                      : No



Text #13

ID                          : 16

Format                      : PGS

Muxing mode                 : zlib

Codec ID                    : S_HDMV/PGS

Codec ID/Info               : Picture based subtitle format used on BDs/HD-DVDs

Duration                    : 1 h 28 min

Bit rate                    : 28.8 kb/s

Count of elements           : 2008

Stream size                 : 18.2 MiB (0%)

Language                    : German

Default                     : No

Forced                      : No



Text #14

ID                          : 17

Format                      : PGS

Muxing mode                 : zlib

Codec ID                    : S_HDMV/PGS

Codec ID/Info               : Picture based subtitle format used on BDs/HD-DVDs

Duration                    : 1 h 28 min

Bit rate                    : 25.2 kb/s

Count of elements           : 1930

Stream size                 : 15.9 MiB (0%)

Language                    : Greek

Default                     : No

Forced                      : No



Text #15

ID                          : 18

Format                      : PGS

Muxing mode                 : zlib

Codec ID                    : S_HDMV/PGS

Codec ID/Info               : Picture based subtitle format used on BDs/HD-DVDs

Duration                    : 1 h 28 min

Bit rate                    : 21.7 kb/s

Count of elements           : 1984

Stream size                 : 13.7 MiB (0%)

Language                    : Hebrew

Default                     : No

Forced                      : No



Text #16

ID                          : 19

Format                      : PGS

Muxing mode                 : zlib

Codec ID                    : S_HDMV/PGS

Codec ID/Info               : Picture based subtitle format used on BDs/HD-DVDs

Duration                    : 1 h 28 min

Bit rate                    : 26.0 kb/s

Count of elements           : 2014

Stream size                 : 16.4 MiB (0%)

Language                    : Hindi

Default                     : No

Forced                      : No



Text #17

ID                          : 20

Format                      : PGS

Muxing mode                 : zlib

Codec ID                    : S_HDMV/PGS

Codec ID/Info               : Picture based subtitle format used on BDs/HD-DVDs

Duration                    : 1 h 28 min

Bit rate                    : 21.9 kb/s

Count of elements           : 1940

Stream size                 : 13.8 MiB (0%)

Language                    : Hungarian

Default                     : No

Forced                      : No



Text #18

ID                          : 21

Format                      : PGS

Muxing mode                 : zlib

Codec ID                    : S_HDMV/PGS

Codec ID/Info               : Picture based subtitle format used on BDs/HD-DVDs

Duration                    : 1 h 22 min

Bit rate                    : 25.1 kb/s

Count of elements           : 1880

Stream size                 : 14.9 MiB (0%)

Language                    : Icelandic

Default                     : No

Forced                      : No



Text #19

ID                          : 22

Format                      : PGS

Muxing mode                 : zlib

Codec ID                    : S_HDMV/PGS

Codec ID/Info               : Picture based subtitle format used on BDs/HD-DVDs

Duration                    : 1 h 28 min

Bit rate                    : 29.1 kb/s

Count of elements           : 1962

Stream size                 : 18.5 MiB (0%)

Language                    : Korean

Default                     : No

Forced                      : No



Text #20

ID                          : 23

Format                      : PGS

Muxing mode                 : zlib

Codec ID                    : S_HDMV/PGS

Codec ID/Info               : Picture based subtitle format used on BDs/HD-DVDs

Duration                    : 1 h 28 min

Bit rate                    : 24.8 kb/s

Count of elements           : 2010

Stream size                 : 15.6 MiB (0%)

Language                    : Latvian

Default                     : No

Forced                      : No



Text #21

ID                          : 24

Format                      : PGS

Muxing mode                 : zlib

Codec ID                    : S_HDMV/PGS

Codec ID/Info               : Picture based subtitle format used on BDs/HD-DVDs

Duration                    : 1 h 22 min

Bit rate                    : 25.4 kb/s

Count of elements           : 1930

Stream size                 : 15.0 MiB (0%)

Language                    : Lithuanian

Default                     : No

Forced                      : No



Text #22

ID                          : 25

Format                      : PGS

Muxing mode                 : zlib

Codec ID                    : S_HDMV/PGS

Codec ID/Info               : Picture based subtitle format used on BDs/HD-DVDs

Duration                    : 1 h 28 min

Bit rate                    : 25.8 kb/s

Count of elements           : 1996

Stream size                 : 16.3 MiB (0%)

Language                    : Norwegian

Default                     : No

Forced                      : No



Text #23

ID                          : 26

Format                      : PGS

Muxing mode                 : zlib

Codec ID                    : S_HDMV/PGS

Codec ID/Info               : Picture based subtitle format used on BDs/HD-DVDs

Duration                    : 1 h 28 min

Bit rate                    : 22.7 kb/s

Count of elements           : 2010

Stream size                 : 14.4 MiB (0%)

Language                    : Polish

Default                     : No

Forced                      : No



Text #24

ID                          : 27

Format                      : PGS

Muxing mode                 : zlib

Codec ID                    : S_HDMV/PGS

Codec ID/Info               : Picture based subtitle format used on BDs/HD-DVDs

Duration                    : 1 h 28 min

Bit rate                    : 40.7 kb/s

Count of elements           : 1958

Stream size                 : 25.9 MiB (0%)

Language                    : Portuguese

Default                     : No

Forced                      : No



Text #25

ID                          : 28

Format                      : PGS

Muxing mode                 : zlib

Codec ID                    : S_HDMV/PGS

Codec ID/Info               : Picture based subtitle format used on BDs/HD-DVDs

Duration                    : 1 h 28 min

Bit rate                    : 24.4 kb/s

Count of elements           : 2006

Stream size                 : 15.5 MiB (0%)

Language                    : Romanian

Default                     : No

Forced                      : No



Text #26

ID                          : 29

Format                      : PGS

Muxing mode                 : zlib

Codec ID                    : S_HDMV/PGS

Codec ID/Info               : Picture based subtitle format used on BDs/HD-DVDs

Duration                    : 1 h 9 min

Bit rate                    : 262 b/s

Count of elements           : 18

Stream size                 : 134 KiB (0%)

Language                    : Russian

Default                     : No

Forced                      : No



Text #27

ID                          : 30

Format                      : PGS

Muxing mode                 : zlib

Codec ID                    : S_HDMV/PGS

Codec ID/Info               : Picture based subtitle format used on BDs/HD-DVDs

Duration                    : 1 h 28 min

Bit rate                    : 23.4 kb/s

Count of elements           : 1986

Stream size                 : 14.8 MiB (0%)

Language                    : Serbian

Default                     : No

Forced                      : No



Text #28

ID                          : 31

Format                      : PGS

Muxing mode                 : zlib

Codec ID                    : S_HDMV/PGS

Codec ID/Info               : Picture based subtitle format used on BDs/HD-DVDs

Duration                    : 1 h 28 min

Bit rate                    : 23.6 kb/s

Count of elements           : 2010

Stream size                 : 14.9 MiB (0%)

Language                    : Slovak

Default                     : No

Forced                      : No



Text #29

ID                          : 32

Format                      : PGS

Muxing mode                 : zlib

Codec ID                    : S_HDMV/PGS

Codec ID/Info               : Picture based subtitle format used on BDs/HD-DVDs

Duration                    : 1 h 28 min

Bit rate                    : 21.7 kb/s

Count of elements           : 2008

Stream size                 : 13.7 MiB (0%)

Language                    : Slovenian

Default                     : No

Forced                      : No



Text #30

ID                          : 33

Format                      : PGS

Muxing mode                 : zlib

Codec ID                    : S_HDMV/PGS

Codec ID/Info               : Picture based subtitle format used on BDs/HD-DVDs

Duration                    : 1 h 28 min

Bit rate                    : 40.3 kb/s

Count of elements           : 1976

Stream size                 : 25.6 MiB (0%)

Language                    : Spanish

Default                     : No

Forced                      : No



Text #31

ID                          : 34

Format                      : PGS

Muxing mode                 : zlib

Codec ID                    : S_HDMV/PGS

Codec ID/Info               : Picture based subtitle format used on BDs/HD-DVDs

Duration                    : 1 h 28 min

Bit rate                    : 24.0 kb/s

Count of elements           : 1544

Stream size                 : 15.2 MiB (0%)

Language                    : Swedish

Default                     : No

Forced                      : No



Text #32

ID                          : 35

Format                      : PGS

Muxing mode                 : zlib

Codec ID                    : S_HDMV/PGS

Codec ID/Info               : Picture based subtitle format used on BDs/HD-DVDs

Duration                    : 1 h 28 min

Bit rate                    : 36.7 kb/s

Count of elements           : 2010

Stream size                 : 23.2 MiB (0%)

Language                    : Thai

Default                     : No

Forced                      : No



Text #33

ID                          : 36

Format                      : PGS

Muxing mode                 : zlib

Codec ID                    : S_HDMV/PGS

Codec ID/Info               : Picture based subtitle format used on BDs/HD-DVDs

Duration                    : 1 h 28 min

Bit rate                    : 27.2 kb/s

Count of elements           : 1900

Stream size                 : 17.2 MiB (0%)

Language                    : Turkish

Default                     : No

Forced                      : No



Text #34

ID                          : 37

Format                      : PGS

Muxing mode                 : zlib

Codec ID                    : S_HDMV/PGS

Codec ID/Info               : Picture based subtitle format used on BDs/HD-DVDs

Duration                    : 1 h 28 min

Bit rate                    : 24.0 kb/s

Count of elements           : 2012

Stream size                 : 15.2 MiB (0%)

Language                    : Ukrainian

Default                     : No

Forced                      : No



Text #35

ID                          : 38

Format                      : PGS

Muxing mode                 : zlib

Codec ID                    : S_HDMV/PGS

Codec ID/Info               : Picture based subtitle format used on BDs/HD-DVDs

Duration                    : 1 h 30 min

Bit rate                    : 58.2 kb/s

Count of elements           : 2857

Stream size                 : 37.6 MiB (0%)

Title                       : Commentary by Director Gil Kenan and Guests

Language                    : Dutch

Default                     : No

Forced                      : No



Text #36

ID                          : 39

Format                      : PGS

Muxing mode                 : zlib

Codec ID                    : S_HDMV/PGS

Codec ID/Info               : Picture based subtitle format used on BDs/HD-DVDs

Duration                    : 1 h 30 min

Bit rate                    : 66.3 kb/s

Count of elements           : 3120

Stream size                 : 42.8 MiB (0%)

Title                       : Commentary by Director Gil Kenan and Guests

Language                    : English

Default                     : No

Forced                      : No



Text #37

ID                          : 40

Format                      : PGS

Muxing mode                 : zlib

Codec ID                    : S_HDMV/PGS

Codec ID/Info               : Picture based subtitle format used on BDs/HD-DVDs

Duration                    : 1 h 24 min

Bit rate                    : 57.7 kb/s

Count of elements           : 3006

Stream size                 : 35.1 MiB (0%)

Title                       : Commentary by Director Gil Kenan and Guests

Language                    : French

Default                     : No

Forced                      : No



Text #38

ID                          : 41

Format                      : PGS

Muxing mode                 : zlib

Codec ID                    : S_HDMV/PGS

Codec ID/Info               : Picture based subtitle format used on BDs/HD-DVDs

Duration                    : 1 h 30 min

Bit rate                    : 64.5 kb/s

Count of elements           : 3170

Stream size                 : 41.6 MiB (0%)

Title                       : Commentary by Director Gil Kenan and Guests

Language                    : German

Default                     : No

Forced                      : No



Text #39

ID                          : 42

Format                      : PGS

Muxing mode                 : zlib

Codec ID                    : S_HDMV/PGS

Codec ID/Info               : Picture based subtitle format used on BDs/HD-DVDs

Duration                    : 1 h 30 min

Bit rate                    : 73.2 kb/s

Count of elements           : 3108

Stream size                 : 47.3 MiB (0%)

Title                       : Commentary by Director Gil Kenan and Guests

Language                    : Korean

Default                     : No

Forced                      : No



Menu

00:03:23.620                : en:"Stay Away from My House"

00:06:35.019                : en:Nebbercracker's Lawn

00:10:27.376                : en:The Key

00:13:36.273                : en:Dark Shadows

00:16:45.754                : en:Zee and Bones

00:20:24.223                : en:Back from the Dead

00:23:59.688                : en:Welcome Mat

00:26:36.553                : en:A Successful Future

00:30:10.850                : en:Scoping It Out

00:33:04.273                : en:Getting Technical

00:36:03.327                : en:The Cops Are Here

00:39:17.396                : en:The Source of Life

00:42:31.382                : en:Getting Prepared

00:46:21.028                : en:Under Arrest

00:49:50.821                : en:Staying Calm

00:53:41.468                : en:Monkey Shines

00:56:45.902                : en:Balls and Coils

01:00:23.411                : en:A Ghost!

01:03:37.522                : en:Constance Trouble

01:05:41.354                : en:"Let Her Go"

01:08:35.444                : en:Gaping Maw

01:11:56.562                : en:Under Destruction

01:13:02.461                : en:Reassembled

01:15:49.878                : en:Dynamite

01:16:55.777                : en:When the Smoke Clears

01:17:28.268                : en:"We're Free"

01:20:50.262                : en:Trick or Treat



Hello everyone,

We are TAoE, a small team of passionate encoders who love encoding. We try our best to provide you with high quality releases.



Requests for movies and shows are welcome.

We have a form for encode requests which can be found here

Encode requests form

submit your request and it will be added to our encoding request list

You can view our encoding request list here

Encode requests list





When or if we encode it will depend on if we can obtain a good source to encode with and

if one of the TAoE encoders chooses to encode it. Unfortunately we are not able to encode everything,

new members are welcome as that helps us encode more content!



If you would like to join TAoE submit your request here!

TAoE member applications form









.........................................................................................................................................

Discussion

Comments 0

Post Your Comment

Files in this torrent

FILENAMESIZE
Monster House (2006) (1080p BDRip x265 10bit DTS-HD MA 5.1 - r0b0t) [TAoE].mkv5.2 GB

Alternative Torrents for 'Monster House bit DTSHD MA rbt'.

TORRENT NAMEADDEDSIZESEEDSPEERSHEALTH
10/18/20202 GB1920336
10/18/2020999 MB1253195
10/17/20202.1 GB663160
10/16/2020797 MB61355
10/16/20201.5 GB30127
11/7/20204.9 GB27396
11/23/2020983 MB25544
11/20/20121.5 GB23355
10/21/20203.4 GB2037
10/21/20201.5 GB1783
10/19/2020906 MB16848
10/30/2020858 MB16360
10/12/20131.6 GB15536
11/17/20131.6 GB14732
10/30/20201.7 GB14244