Housefull (2010) Hindi 720p BluRay X264 DD 5.1(224Kbps) ESubs - 1.2GB - MovCr

Torrent Details

 Housefull (2010) Hindi 720p BluRay x264 DD 5.1(224Kbps) ESubs - 1.2GB <span style=color:#fc9c6d>- MovCr</span>
 Housefull (2010) Hindi 720p BluRay x264 DD 5.1(224Kbps) ESubs - 1.2GB <span style=color:#fc9c6d>- MovCr</span>

NAME
Housefull (2010) Hindi 720p BluRay x264 DD 5.1(224Kbps) ESubs - 1.2GB - MovCr.torrent
CATEGORY
Movies
INFOHASH
d645698575e713e69544214dc8cff9c948e09859
SIZE
1.3 GB in 1 file
ADDED
Uploaded on 07-06-2020 by our crawler pet called "Spidey".
SWARM
0 seeders & 0 peers
RATING
No votes yet.

Please login to vote for this torrent.


Description

https://MovCr.to





























IMDB Link : https://www.imdb.com/title/tt1573072/



Plot :



Housefull is a romantic comedy entertainer which narrates the story of Aarush - the world's unluckiest man. Being jinxed, he believes his bad luck can vanish if he finds true love. In this quest for true love how one lie leads to another and how different people from different walks of life come together adding even more confusion to this hilarious comedy of errors resulting in total chaos and mayhem forms the crux of the story. The line which Deepika tells Akshay in the film "Jis jhooth se kissi ka ghar basta ho, voh jhooth jhooth nahin hota", pretty much sums up the essence of the film. Written by Danisrocky







Video

ID                          : 1

Format                      : AVC

Format/Info                 : Advanced Video Codec

Format profile              : [email protected]

Format settings             : CABAC / 4 Ref Frames

Format settings, CABAC      : Yes

Format settings, Reference  : 4 frames

Codec ID                    : V_MPEG4/ISO/AVC

Duration                    : 2 h 29 min

Bit rate                    : 1 004 kb/s

Width                       : 1 280 pixels

Height                      : 544 pixels

Display aspect ratio        : 2.35:1

Frame rate mode             : Constant

Frame rate                  : 24.000 FPS

Color space                 : YUV

Chroma subsampling          : 4:2:0

Bit depth                   : 8 bits

Scan type                   : Progressive

Bits/(Pixel*Frame)          : 0.060

Stream size                 : 1.05 GiB (82%)

Title                       : www.MovCr.to

Writing library             : x264 core 157 r2935 545de2f

Default                     : Yes

Forced                      : No

Color range                 : Limited

Color primaries             : BT.709

Transfer characteristics    : BT.709

Matrix coefficients         : BT.709



Audio

ID                          : 2

Format                      : E-AC-3

Format/Info                 : Enhanced AC-3

Commercial name             : Dolby Digital Plus

Codec ID                    : A_EAC3

Duration                    : 2 h 29 min

Bit rate mode               : Constant

Bit rate                    : 224 kb/s

Channel(s)                  : 6 channels

Channel layout              : L R C LFE Ls Rs

Sampling rate               : 48.0 kHz

Frame rate                  : 31.250 FPS (1536 SPF)

Compression mode            : Lossy

Delay relative to video     : -5 ms

Stream size                 : 240 MiB (18%)

Language                    : Hindi

Service kind                : Complete Main

Default                     : Yes

Forced                      : No



Text

ID                          : 3

Format                      : UTF-8

Codec ID                    : S_TEXT/UTF8

Codec ID/Info               : UTF-8 Plain Text

Duration                    : 2 h 27 min

Bit rate                    : 60 b/s

Count of elements           : 2220

Stream size                 : 65.9 KiB (0%)

Language                    : English

Default                     : Yes

Forced                      : No

























Discussion

Comments 0

Post Your Comment

Files in this torrent

FILENAMESIZE
www.MovCr.to - Housefull (2010) Hindi 720p BluRay x264 DD+5.1(224Kbps) ESubs - 1.2GB - MovCr.mkv1.3 GB

Alternative Torrents for 'Housefull Hindi BluRay DD . ESubs'.

TORRENT NAMEADDEDSIZESEEDSPEERSHEALTH
6/7/20201.2 GB10
6/7/20202.3 GB10
6/7/20202.3 GB10
6/7/20201.3 GB00