DC's Legends Of Tomorrow (2016) Season 5 S05 (1080p AMZN WEB-DL X265 HEVC 10bit AAC 5.1 Vyndros)

Torrent Details

DC's Legends of Tomorrow (2016) Season 5 S05 (1080p AMZN WEB-DL x265 HEVC 10bit AAC 5.1 Vyndros)
DC's Legends of Tomorrow (2016) Season 5 S05 (1080p AMZN WEB-DL x265 HEVC 10bit AAC 5.1 Vyndros)

NAME
DC's Legends of Tomorrow (2016) Season 5 S05 (1080p AMZN WEB-DL x265 HEVC 10bit AAC 5.1 Vyndros).torrent
CATEGORY
Television
INFOHASH
0c335eafc026263d1d1e42dc9d8bb9e0c37b3692
SIZE
14.5 GB in 15 files
ADDED
Uploaded on 08-06-2020 by our crawler pet called "Spidey".
SWARM
0 seeders & 0 peers
RATING
No votes yet.

Please login to vote for this torrent.


Description





























Media Information



General

Format                                   : Matroska

Format version                           : Version 4 / Version 2

File size                                : 1.07 GiB

Duration                                 : 42 min 25 s

Overall bit rate                         : 3 615 kb/s

Encoded date                             : UTC 2020-06-06 01:36:29

Writing application                      : mkvmerge v20.0.0 ('I Am The Sun') 64-bit

Writing library                          : libebml v1.3.5 + libmatroska v1.4.8

Writing frontend                         : StaxRip v1.7.0.6



Video

ID                                       : 1

Format                                   : HEVC

Format/Info                              : High Efficiency Video Coding

Format profile                           : Main [email protected]@Main

Codec ID                                 : V_MPEGH/ISO/HEVC

Duration                                 : 42 min 25 s

Bit rate                                 : 3 149 kb/s

Width                                    : 1 920 pixels

Height                                   : 1 080 pixels

Display aspect ratio                     : 16:9

Frame rate mode                          : Constant

Frame rate                               : 23.976 (24000/1001) FPS

Color space                              : YUV

Chroma subsampling                       : 4:2:0

Bit depth                                : 10 bits

Bits/(Pixel*Frame)                       : 0.063

Stream size                              : 955 MiB (87%)

Writing library                          : x265 3.4+1-7b120308dc64:[Windows][MSVC 1926][64 bit] 10bit

Encoding settings                        : cpuid=1111039 / frame-threads=3 / numa-pools=12 / wpp / no-pmode / no-pme / no-psnr / ssim / log-level=2 / input-csp=1 / input-res=1920x1080 / interlace=0 / total-frames=61023 / level-idc=0 / high-tier=1 / uhd-bd=0 / ref=3 / no-allow-non-conformance / no-repeat-headers / annexb / no-aud / no-hrd / info / hash=0 / no-temporal-layers / open-gop / min-keyint=23 / keyint=250 / gop-lookahead=0 / bframes=8 / b-adapt=2 / b-pyramid / bframe-bias=0 / rc-lookahead=80 / lookahead-slices=6 / scenecut=40 / hist-scenecut=0 / radl=0 / no-splice / no-intra-refresh / ctu=64 / min-cu-size=8 / no-rect / no-amp / max-tu-size=32 / tu-inter-depth=1 / tu-intra-depth=1 / limit-tu=0 / rdoq-level=0 / dynamic-rd=0.00 / no-ssim-rd / signhide / no-tskip / nr-intra=0 / nr-inter=0 / no-constrained-intra / no-strong-intra-smoothing / max-merge=3 / limit-refs=1 / no-limit-modes / me=3 / subme=5 / merange=57 / temporal-mvp / no-frame-dup / no-hme / weightp / no-weightb / no-analyze-src-pics / deblock=0:0 / sao / no-sao-non-deblock / rd=3 / selective-sao=4 / early-skip / no-rskip / no-fast-intra / no-tskip-fast / no-cu-lossless / b-intra / no-splitrd-skip / rdpenalty=0 / psy-rd=2.00 / psy-rdoq=0.00 / no-rd-refine / no-lossless / cbqpoffs=0 / crqpoffs=0 / rc=crf / crf=20.0 / qcomp=0.60 / qpstep=4 / stats-write=0 / stats-read=0 / ipratio=1.40 / pbratio=1.30 / aq-mode=3 / aq-strength=0.80 / cutree / zone-count=0 / no-strict-cbr / qg-size=32 / no-rc-grain / qpmax=69 / qpmin=0 / no-const-vbv / sar=0 / overscan=0 / videoformat=5 / range=0 / colorprim=2 / transfer=2 / colormatrix=2 / chromaloc=0 / display-window=0 / cll=0,0 / min-luma=0 / max-luma=1023 / log2-max-poc-lsb=8 / vui-timing-info / vui-hrd-info / slices=1 / no-opt-qp-pps / no-opt-ref-list-length-pps / no-multi-pass-opt-rps / scenecut-bias=0.05 / hist-threshold=0.01 / no-opt-cu-delta-qp / no-aq-motion / no-hdr10 / no-hdr10-opt / no-dhdr10-opt / no-idr-recovery-sei / analysis-reuse-level=0 / analysis-save-reuse-level=0 / analysis-load-reuse-level=0 / scale-factor=0 / refine-intra=0 / refine-inter=0 / refine-mv=1 / refine-ctu-distortion=0 / no-limit-sao / ctu-info=0 / no-lowpass-dct / refine-analysis-type=0 / copy-pic=1 / max-ausize-factor=1.0 / no-dynamic-refine / no-single-sei / no-hevc-aq / no-svt / no-field / qp-adaptation-range=1.00 / no-scenecut-aware-qpconformance-window-offsets / right=0 / bottom=0 / decoder-max-rate=0

Default                                  : Yes

Forced                                   : No



Audio

ID                                       : 2

Format                                   : AAC

Format/Info                              : Advanced Audio Codec

Format profile                           : LC

Codec ID                                 : A_AAC

Duration                                 : 42 min 25 s

Bit rate                                 : 463 kb/s

Channel(s)                               : 6 channels

Channel positions                        : Front: L C R, Side: L R, LFE

Sampling rate                            : 48.0 kHz

Frame rate                               : 46.875 FPS (1024 spf)

Compression mode                         : Lossy

Delay relative to video                  : 20 ms

Stream size                              : 141 MiB (13%)

Language                                 : English

Default                                  : Yes

Forced                                   : Yes



Subtitle #1

ID                                       : 3

Format                                   : UTF-8

Codec ID                                 : S_TEXT/UTF8

Codec ID/Info                            : UTF-8 Plain Text

Duration                                 : 42 min 16 s

Bit rate                                 : 77 b/s

Count of elements                        : 783

Stream size                              : 24.0 KiB (0%)

Language                                 : English

Default                                  : No

Forced                                   : No



Subtitle #2

ID                                       : 4

Format                                   : UTF-8

Codec ID                                 : S_TEXT/UTF8

Codec ID/Info                            : UTF-8 Plain Text

Duration                                 : 42 min 16 s

Bit rate                                 : 84 b/s

Count of elements                        : 952

Stream size                              : 26.3 KiB (0%)

Language                                 : English

Default                                  : No

Forced                                   : No



Source Information

Amazon WEB-DL

Discussion

Comments 0

Post Your Comment

Files in this torrent

FILENAMESIZE
DC's.Legends.of.Tomorrow.S05E01.Crisis.on.Infinite.Earths.(5).1080p.10bit.AMZN.WEB-DL.AAC5.1.HEVC-Vyndros.mkv1.1 GB
DC's.Legends.of.Tomorrow.S05E02.Meet.the.Legends.1080p.10bit.AMZN.WEB-DL.AAC5.1.HEVC-Vyndros.mkv1019.6 MB
DC's.Legends.of.Tomorrow.S05E03.Miss.Me,.Kiss.Me,.Love.Me.1080p.10bit.AMZN.WEB-DL.AAC5.1.HEVC-Vyndros.mkv892.1 MB
DC's.Legends.of.Tomorrow.S05E04.Slay.Anything.1080p.10bit.AMZN.WEB-DL.AAC5.1.HEVC-Vyndros.mkv908.7 MB
DC's.Legends.of.Tomorrow.S05E05.A.Head.of.Her.Time.1080p.10bit.AMZN.WEB-DL.AAC5.1.HEVC-Vyndros.mkv1.1 GB
DC's.Legends.of.Tomorrow.S05E06.Mortal.Khanbat.1080p.10bit.AMZN.WEB-DL.AAC5.1.HEVC-Vyndros.mkv940 MB
DC's.Legends.of.Tomorrow.S05E07.Mr.Parker's.Cul-De-Sac.1080p.10bit.AMZN.WEB-DL.AAC5.1.HEVC-Vyndros.mkv862.2 MB
DC's.Legends.of.Tomorrow.S05E08.Romeo.V.Juliet.Dawn.of.Justness.1080p.10bit.AMZN.WEB-DL.AAC5.1.HEVC-Vyndros.mkv798.4 MB
DC's.Legends.of.Tomorrow.S05E09.Zari,.Not.Zari.1080p.10bit.AMZN.WEB-DL.AAC5.1.HEVC-Vyndros.mkv1.1 GB
DC's.Legends.of.Tomorrow.S05E10.The.Great.British.Fake.Off.1080p.10bit.AMZN.WEB-DL.AAC5.1.HEVC-Vyndros.mkv744.1 MB
DC's.Legends.of.Tomorrow.S05E11.Ship.Broken.1080p.10bit.AMZN.WEB-DL.AAC5.1.HEVC-Vyndros.mkv1 GB
DC's.Legends.of.Tomorrow.S05E12.Freaks.and.Greeks.1080p.10bit.AMZN.WEB-DL.AAC5.1.HEVC-Vyndros.mkv1.1 GB
DC's.Legends.of.Tomorrow.S05E13.I.Am.Legends.1080p.10bit.AMZN.WEB-DL.AAC5.1.HEVC-Vyndros.mkv930.8 MB
DC's.Legends.of.Tomorrow.S05E14.The.One.Where.We're.Trapped.on.TV.1080p.10bit.AMZN.WEB-DL.AAC5.1.HEVC-Vyndros.mkv1 GB
DC's.Legends.of.Tomorrow.S05E15.Swan.Thong.1080p.10bit.AMZN.WEB-DL.AAC5.1.HEVC-Vyndros.mkv1.1 GB

Alternative Torrents for 'DC&;s Legends of Tomorrow Season HEVC bit AAC Vyndros'.

TORRENT NAMEADDEDSIZESEEDSPEERSHEALTH
8/3/202080.7 GB7472
8/4/20202.9 GB374
Today1.1 GB3560
8/3/202084.6 GB2326
7/27/20202.8 GB174
8/3/2020694 MB96
7/25/2020155 MB71
7/28/2020102 MB20
7/20/20202.9 GB00
7/15/2020237 MB00
7/14/20202.8 GB00
7/10/20201.1 GB00
7/10/2020279 MB00
7/10/2020427 MB00
7/10/20201 GB00