Killjoys [S04E05] [1080p BluRay DD2.0 X264-Ralf][Lektor PL][Alusia]

Torrent Details

Killjoys [S04E05] [1080p BluRay DD2.0 x264-Ralf][Lektor PL][Alusia]Killjoys [S04E05] [1080p BluRay DD2.0 x264-Ralf][Lektor PL][Alusia]

NAME
Killjoys [S04E05] [1080p BluRay DD2.0 x264-Ralf][Lektor PL][Alusia].torrent
CATEGORY
Television
INFOHASH
6556eb439f3896a977fb841cb97d9a7b1b7d5aa0
SIZE
3 GB in 3 files
ADDED
Uploaded on 08-06-2020 by our crawler pet called "Spidey".
SWARM
0 seeders & 0 peers
RATING
No votes yet.

Please login to vote for this torrent.


Description


INFO

produkcja: USA
gatunek: Komedia
twórca: Chuck Lorre, Bill Prady, Steven Molaro
muzyka: Barenaked Ladies, Benson Taylor
zdjęcia: Steven V. Silver
czas trwania: ok. 19-20 min.

OPIS

Fizycy Leonard i Sheldon rozumieją wszystko począwszy od nieuchronnego przyciągania czarnej dziury, a skończywszy na skomplikowanej budowie atomu. Ale jeśli złożycie te atomy w kobietę, wtedy ich rozumowanie nagle się kończy. A kiedy Penny, kobieta ze wszystkimi atomami we właściwym miejscu, wprowadza się do mieszkania naprzeciwko, wszechświat Leonarda i Sheldona zaczyna się rozszerzać do rozmiarów, których nigdy nie podejrzewali.

OBSADA

Johnny Galecki - Leonard Hofstadter
Jim Parsons - Sheldon Cooper
Kaley Cuoco - Penny
Simon Helberg - Howard Wolowitz
Kunal Nayyar - Rajesh Koothrappali

DANE

Format : Matroska
Format version : Version 4 / Version 2
File size : 725 MiB
Duration : 19 min 22 s
Overall bit rate mode : Constant
Overall bit rate : 5 233 kb/s
Encoded date : UTC 2019-03-06 18:21:02

Video
ID : 1
Format : AVC
Format/INFO : Advanced Video Codec
Format profile : [email protected]
Format settings : CABAC / 4 Ref Frames
Format settings, CABAC : Yes
Format settings, ReFrames : 4 frames
Codec ID : V_MPEG4/ISO/AVC
Duration : 19 min 22 s
Bit rate mode : Constant
Bit rate : 4 848 kb/s
Nominal bit rate : 5 192 kb/s
Width : 1 920 pixels
Height : 1 080 pixels
Display aspect ratio : 16:9
Frame rate mode : Constant
Frame rate : 24.000 FPS
Color space : YUV
Chroma subsampling : 4:2:0
Bit depth : 8 bits
Scan type : Progressive
Bits/(Pixel*Frame) : 0.097
Stream size : 672 MiB (93%)
Default : Yes
Forced : Yes
Color range : Limited
Color primaries : BT.709
Transfer characteristics : BT.709
Matrix coefficients : BT.709

Audio
ID : 2
Format : AC-3
Format/INFO : Audio Coding 3
Commercial name : Dolby Digital
Codec ID : A_AC3
Duration : 19 min 22 s
Bit rate mode : Constant
Bit rate : 384 kb/s
Channel(s) : 2 channels
Channel layout : L R
Sampling rate : 48.0 kHz
Frame rate : 31.250 FPS (1536 SPF)
Bit depth : 16 bits
Compression mode : Lossy
Stream size : 53.2 MiB (7%)
Language : Polish
Service kind : Complete Main
Default : Yes
Forced : Yes

Discussion

Comments 0

Post Your Comment

Files in this torrent

FILENAMESIZE
Killjoys.S04E05 [1080p.BluRay.DD2.0.x264-Ralf][Lektor PL][Alusia][FT].mkv3 GB
LoGo.png202.8 KB
ZOBACZ NAS!!.jpg2.3 MB

Alternative Torrents for 'Killjoys BluRay DD. RalfLektor PLAlusia'.

TORRENT NAMEADDEDSIZESEEDSPEERSHEALTH
11/6/2020797 MB25361474
11/8/20201.7 GB1154208
11/8/20208.5 GB1059211
11/21/20202.1 GB79546
11/8/2020864 MB773118
11/21/20201.1 GB770131
11/7/20202.1 GB737332
11/21/20201.4 GB73078
11/6/202011.6 GB640185
11/21/20202.3 GB632101
11/21/2020680 MB62266
11/7/20201 GB57533
8/21/20202 GB503138
9/14/20201.8 GB49487
11/20/20201.3 GB483183