Fantasy Island 2020 Unrated BDRip 1.46GB X264

Torrent Details

Fantasy Island 2020 Unrated BDRip 1.46GB x264
Fantasy Island 2020 Unrated BDRip 1.46GB x264

NAME
Fantasy Island 2020 Unrated BDRip 1.46GB x264.torrent
CATEGORY
Movies
INFOHASH
5be39f849242063d812d30094a13972880238d7c
SIZE
1.5 GB in 1 file
ADDED
Uploaded on 09-06-2020 by our crawler pet called "Spidey".
SWARM
0 seeders & 0 peers
RATING
No votes yet.

Please login to vote for this torrent.


Description

«Бойся своих желаний»



Информация о фильме

Название: Остров фантазий

Оригинальное название: Fantasy Island

Год выхода: 2020

Жанр: Триллер, фантастика

Режиссер: Джефф Уодлоу

В ролях: Майкл Пенья, Мэгги Кью, Люси Хейл, Остин Стоуэлл, Портия Даблдэй, Джимми О. Ян, Райан Хансен, Майкл Рукер, Шарлотта МакКинни, Ким Коутс, Париса Фитц-Хенли, Майк Фогель



О фильме:

Группа из пяти человек прилетает на загадочный тропический остров, где некий мистер Рорк исполняет заветные мечты своих гостей. Каждый из новоприбывших хотел бы что-то изменить в своей жизни, и каким-то невероятным образом остров фантазий эти желания воплощает, но вскоре мечты гостей оборачиваются неожиданным кошмаром.







Страна: США

Студия: Blumhouse Productions, Columbia Pictures Corporation

Продолжительность: 01:49:24

Перевод:

• Профессиональный (полное дублирование) | Лицензия Blu-ray EUR



Файл

Качество: BDRip-AVC

Исходник: Fantasy.Island.2020.Unrated.BDREMUX.1080p.seleZen.mkv

Формат: MKV

Кодек: MPEG-4 AVC

Видео: 864x362 (2.40:1), 23,976 fps, MPEG-4 AVC ~ 1459 Кbps avg, 0.195 bit/pixel

Аудио: AC3, 48 kHz, 6 ch, ~448.00 kbps avg | русский | iTunes

Субтитры: Русские (Forced, full), украинские (Full)



Инфо-файлОбщее

Уникальный идентификатор : 259233310369038158785016415875278201458 (0xC30684FE193A1FFA9C14F52E4D066272)

Полное имя : Fantasy.Island.2020.Unrated.BDRip.1.46Gb.x264.mkv

Формат : Matroska

Версия формата : Version 4

Размер файла : 1,46 Гбайт

Продолжительность : 1 ч. 49 м.

Общий поток : 1 906 Кбит/сек

Название фильма : Остров фантазий / Fantasy Island (2020)

Дата кодирования : UTC 2020-06-09 00:25:48

Программа кодирования : mkvmerge v47.0.0 ('Black Flag') 64-bit

Библиотека кодирования : libebml v1.3.10 + libmatroska v1.5.2

Обложка : Yes

Attachments : cover.jpg



Видео

Идентификатор : 1

Формат : AVC

Формат/Информация : Advanced Video Codec

Профиль формата : [email protected]

Настройки формата : CABAC / 11 Ref Frames

Параметр CABAC формата : Да

Параметр RefFrames формата : 11 кадров

Идентификатор кодека : V_MPEG4/ISO/AVC

Продолжительность : 1 ч. 49 м.

Битрейт : 1 459 Кбит/сек

Ширина : 864 пикселя

Высота : 362 пикселя

Соотношение сторон : 2,40:1

Режим частоты кадров : Постоянный

Частота кадров : 23,976 (24000/1001) кадра/сек

Цветовое пространство : YUV

Субдискретизация насыщенности : 4:2:0

Битовая глубина : 8 бит

Тип развёртки : Прогрессивная

Бит/(Пиксели*Кадры) : 0.195

Размер потока : 1,11 Гбайт (76%)

Заголовок : #stillet

Библиотека кодирования : x264 core 152 r2851bm ba24899

Настройки программы : cabac=1 / ref=11 / deblock=1:-3:-3 / analyse=0x3:0x113 / me=umh / subme=11 / psy=1 / psy_rd=1.00:0.15 / mixed_ref=1 / me_range=32 / chroma_me=1 / trellis=2 / 8x8dct=1 / cqm=0 / deadzone=21,11 / fast_pskip=0 / chroma_qp_offset=-3 / threads=8 / lookahead_threads=3 / sliced_threads=0 / nr=0 / decimate=0 / interlaced=0 / bluray_compat=0 / constrained_intra=0 / bframes=10 / b_pyramid=2 / b_adapt=2 / b_bias=0 / direct=3 / weightb=1 / open_gop=0 / weightp=2 / keyint=240 / keyint_min=23 / scenecut=40 / intra_refresh=0 / rc=2pass / mbtree=0 / bitrate=1459 / ratetol=1.0 / qcomp=0.60 / qpmin=0 / qpmax=69 / qpstep=4 / cplxblur=20.0 / qblur=0.5 / ip_ratio=1.40 / pb_ratio=1.30 / aq=1:1.00

Язык : English

Default : Да

Forced : Нет



Аудио

Идентификатор : 2

Формат : AC-3

Формат/Информация : Audio Coding 3

Коммерческое название : Dolby Digital

Идентификатор кодека : A_AC3

Продолжительность : 1 ч. 49 м.

Вид битрейта : Постоянный

Битрейт : 448 Кбит/сек

Каналы : 6 каналов

Channel layout : L R C LFE Ls Rs

Частота : 48,0 КГц

Частота кадров : 31,250 кадров/сек (1536 SPF)

Метод сжатия : С потерями

Размер потока : 351 Мбайт (24%)

Заголовок : Blu-ray EUR

Язык : Russian

Default : Да

Forced : Да



Текст #1

Идентификатор : 3

Формат : UTF-8

Идентификатор кодека : S_TEXT/UTF8

Идентификатор кодека/Информация : UTF-8 Plain Text

Продолжительность : 1 ч. 46 м.

Битрейт : 0 бит/сек

Count of elements : 3

Размер потока : 129 байт (0%)

Заголовок : Forced

Язык : Russian

Default : Да

Forced : Да



Текст #2

Идентификатор : 4

Формат : UTF-8

Идентификатор кодека : S_TEXT/UTF8

Идентификатор кодека/Информация : UTF-8 Plain Text

Продолжительность : 1 ч. 48 м.

Битрейт : 96 бит/сек

Count of elements : 1409

Размер потока : 76,3 Кбайт (0%)

Заголовок : Full

Язык : Russian

Default : Нет

Forced : Нет



Текст #3

Идентификатор : 5

Формат : UTF-8

Идентификатор кодека : S_TEXT/UTF8

Идентификатор кодека/Информация : UTF-8 Plain Text

Продолжительность : 1 ч. 48 м.

Битрейт : 88 бит/сек

Count of elements : 1407

Размер потока : 70,5 Кбайт (0%)

Заголовок : Full

Язык : Ukrainian

Default : Нет

Forced : Нет



Меню

00:00:00.000 : :Chapter 1

00:08:47.110 : :Chapter 2

00:13:44.824 : :Chapter 3

00:18:47.501 : :Chapter 4

00:25:42.332 : :Chapter 5

00:32:38.706 : :Chapter 6

00:39:34.956 : :Chapter 7

00:45:24.722 : :Chapter 8

00:51:02.142 : :Chapter 9

00:55:38.335 : :Chapter 10

01:01:34.148 : :Chapter 11

01:09:40.092 : :Chapter 12

01:15:21.558 : :Chapter 13

01:23:03.019 : :Chapter 14

01:29:11.638 : :Chapter 15

01:40:03.831 : :Chapter 16







Скриншоты

Discussion

Comments 0

Post Your Comment

Files in this torrent

FILENAMESIZE
Fantasy.Island.2020.Unrated.BDRip.1.46Gb.x264.mkv1.5 GB

Alternative Torrents for 'Fantasy Island Unrated'.

TORRENT NAMEADDEDSIZESEEDSPEERSHEALTH
7/18/20203.9 GB00
7/18/20204.2 GB00
7/15/20204 GB00
7/12/20201.2 GB00
7/12/20201.1 GB00
7/12/20203.7 GB00
7/12/20202.3 GB00
7/12/20204 GB00
6/13/20204 GB00
6/13/202010.4 GB00
6/11/20201.5 GB00
6/10/2020750 MB00
6/9/20201.5 GB00
5/28/20202.2 GB00
5/12/20202.3 GB00