Luchshe Chem Lyudi 2018 WEB-DLRip GeneralFilm

Torrent Details


Luchshe Chem Lyudi<span style=color:#777> 2018</span> WEB-DLRip<span style=color:#fc9c6d> GeneralFilm</span>

NAME
Luchshe Chem Lyudi 2018 WEB-DLRip GeneralFilm.torrent
CATEGORY
Television
INFOHASH
0f6c4277031cb5684d195fe6a44f38a98910900f
SIZE
8.7 GB in 16 files
ADDED
Uploaded on 09-06-2020 by our crawler pet called "Spidey".
SWARM
0 seeders & 1 peers
RATING
No votes yet.

Please login to vote for this torrent.


Description

Оригинальное название: Лучше, чем люди

Год выпуска: 2018

Жанр: Фантастика, драма

Режиссер: Андрей Джунковский

В ролях: Паулина Андреева, Александр Устюгов, Кирилл Кяро, Ольга Ломоносова, Александр Кузнецов (IX), Ирина Таранник, Виталия Корниенко, Михаил Кремер, Татьяна Ермилова, Денис Бургазлиев, Сергей Тэсслер, Виктория Корлякова, Вера Панфилова, Сергей Сосновский, Ксения Кубасова, Мария Луговая, Олег Морозов, Владимир Лукьянчиков, Алевтина Тукан, Павел Усачев, Сергей Губанов



О фильме: Действие происходит в недалеком будущем, где роботы-андроиды стали обыденным явлением и вошли во все сферы жизни людей – они помогают им воспитывать детей, работают персональными водителями и охранниками. Для большинства людей боты – просто бездушные машины для рутинной работы, но они тоже способны на эмоции. Главная героиня – супербот Ариса – пытается понять, что значит быть человеком. Как ребенок, она познаёт мир и постепенно открывает для себя такие чувства, как: забота, преданность и любовь. При этом, ее абсолютное и наивное следование по этому пути и делает ее существом лучшим, чем сами люди.







Страна: Россия

Студия: Yellow, Black and White, «Спутник Восток Продакшн»

Продолжительность: 16 x ~ 00:50:00

Перевод: Не требуется

Субтитры: нет



Файл

Формат: avi

Качество: WEB-DLRip

Видео: XviD build 73, 720x400 (16:9), 25.000 fps, ~ 1350 Kbps (~ 0.191 bit/pixel)

Звук: 48.0 kHz, MP3, 2/0 ch, 192 kbps



MediaInfoGeneral

Complete name : D:RazdachiLuchshe.Chem.Lyudi.2018.WEB-DLRip.GeneralFilmE01.Luchshe.Chem.Lyudi.avi

Format : AVI

Format/Info : Audio Video Interleave

File size : 557 MiB

Duration : 49 min 20 s

Overall bit rate : 1 579 kb/s

Writing application : VirtualDubMod 1.5.10.3 | www.virtualdub-fr.org || (build 2550/release)

Writing library : VirtualDubMod build 2550/release



Video

ID : 0

Format : MPEG-4 Visual

Format profile : Advanced Simple@L5

Format settings : BVOP1 / Custom Matrix

Format settings, BVOP : 1

Format settings, QPel : No

Format settings, GMC : No warppoints

Format settings, Matrix : Custom

Codec ID : XVID

Codec ID/Hint : XviD

Duration : 49 min 20 s

Bit rate : 1 378 kb/s

Width : 720 pixels

Height : 400 pixels

Display aspect ratio : 16:9

Frame rate : 25.000 FPS

Color space : YUV

Chroma subsampling : 4:2:0

Bit depth : 8 bits

Scan type : Progressive

Compression mode : Lossy

Bits/(Pixel*Frame) : 0.191

Stream size : 486 MiB (87%)

Writing library : XviD 69



Audio

ID : 1

Format : MPEG Audio

Format version : Version 1

Format profile : Layer 3

Codec ID : 55

Codec ID/Hint : MP3

Duration : 49 min 20 s

Bit rate mode : Constant

Bit rate : 192 kb/s

Channel(s) : 2 channels

Sampling rate : 48.0 kHz

Frame rate : 41.667 FPS (1152 SPF)

Compression mode : Lossy

Stream size : 67.8 MiB (12%)

Alignment : Aligned on interleaves

Interleave, duration : 40 ms (1.00 video frame)

Interleave, preload duratio : 504 ms

Writing library : LAME3.99r

Encoding settings : -m s -V 4 -q 2 -lowpass 18.6 -b 192Скриншоты

Релиз от:

Discussion

Comments 0

Post Your Comment

Files in this torrent

FILENAMESIZE
E01.Luchshe.Chem.Lyudi.avi557.4 MB
E02.Luchshe.Chem.Lyudi.avi557.7 MB
E03.Luchshe.Chem.Lyudi.avi557.5 MB
E04.Luchshe.Chem.Lyudi.avi557.8 MB
E05.Luchshe.Chem.Lyudi.avi557.3 MB
E06.Luchshe.Chem.Lyudi.avi557.5 MB
E07.Luchshe.Chem.Lyudi.avi557.6 MB
E08.Luchshe.Chem.Lyudi.avi557.3 MB
E09.Luchshe.Chem.Lyudi.avi557.9 MB
E10.Luchshe.Chem.Lyudi.avi557.6 MB
E11.Luchshe.Chem.Lyudi.avi557.2 MB
E12.Luchshe.Chem.Lyudi.avi557.6 MB
E13.Luchshe.Chem.Lyudi.avi557.5 MB
E14.Luchshe.Chem.Lyudi.avi557.8 MB
E15.Luchshe.Chem.Lyudi.avi557.7 MB
E16.Luchshe.Chem.Lyudi.avi557.7 MB

Alternative Torrents for 'Luchshe Chem Lyudi DLRip'.

There are no alternative torrents found.