Little Women 2019 Lic BDRip 1.46GB X264

Torrent Details

Little Women 2019 Lic BDRip 1.46GB x264
Little Women 2019 Lic BDRip 1.46GB x264

NAME
Little Women 2019 Lic BDRip 1.46GB x264.torrent
CATEGORY
Movies
INFOHASH
cde3b03eb654592dc6bf24be405395195ec1cdff
SIZE
1.5 GB in 1 file
ADDED
Uploaded on 13-06-2020 by our crawler pet called "Spidey".
SWARM
0 seeders & 0 peers
RATING
No votes yet.

Please login to vote for this torrent.


Description

«Own your story»



Информация о фильме

Название: Маленькие женщины

Оригинальное название: Little Women

Год выхода: 2019

Жанр: Драма, мелодрама

Режиссер: Грета Гервиг

В ролях: Сирша Ронан, Эмма Уотсон, Флоренс Пью, Элайза Сканлен, Лора Дерн, Тимоти Шаламе, Трэйси Леттс, Боб Оденкёрк, Джеймс Нортон, Луи Гаррель



О фильме:

Фильм рассказывает о взрослении четырех непохожих друг на друга сестер. Действие разворачивается во времена Гражданской войны в США, но проблемы, с которыми сталкиваются девушки, актуальны как никогда: первая любовь, горькое разочарование, томительная разлука и непростые поиски себя и своего места в жизни.







Страна: США

Студия: Columbia Pictures Corporation, Instinctual VFX, New Regency Pictures, Pascal Pictures, Regency Enterprises, Sony Pictures Entertainment (SPE)

Продолжительность: 02:14:54

Перевод:

• Профессиональный (полное дублирование) | Лицензия Blu-ray EUR



Файл

Качество: BDRip-AVC

Исходник: Little.Women.2019.1080p.BluRay.REMUX.AVC.DTS-HD.MA5.1-iFT

Формат: MKV

Кодек: MPEG-4 AVC

Видео: 720x390 (1,85:1), 23.976 fps, MPEG-4 AVC ~ 1354 Kbps avg, 0.201 bit/pixel

Аудио: AC3, 48 kHz, 2 ch, ~192.00 kbps avg | русский | Blu-ray EUR

Субтитры: Русские (Forced, full), английские (Full, SDH)



Инфо-файлОбщее

Уникальный идентификатор : 66958531412566390125843042835350552606 (0x325FBE7B3CF9CFE0340DADFDF516001E)

Полное имя : Little.Women.2019.Lic.BDRip.1.46Gb.x264.mkv

Формат : Matroska

Версия формата : Version 4

Размер файла : 1,46 Гбайт

Продолжительность : 2 ч. 14 м.

Общий поток : 1 550 Кбит/сек

Название фильма : Маленькие женщины / Little Women (2019)

Дата кодирования : UTC 2020-06-13 01:13:54

Программа кодирования : mkvmerge v47.0.0 ('Black Flag') 64-bit

Библиотека кодирования : libebml v1.3.10 + libmatroska v1.5.2

Обложка : Yes

Attachments : cover.jpg



Видео

Идентификатор : 1

Формат : AVC

Формат/Информация : Advanced Video Codec

Профиль формата : [email protected]

Настройки формата : CABAC / 12 Ref Frames

Параметр CABAC формата : Да

Параметр RefFrames формата : 12 кадров

Идентификатор кодека : V_MPEG4/ISO/AVC

Продолжительность : 2 ч. 14 м.

Битрейт : 1 354 Кбит/сек

Ширина : 720 пикселей

Высота : 390 пикселей

Соотношение сторон : 1,85:1

Режим частоты кадров : Постоянный

Частота кадров : 23,976 (24000/1001) кадра/сек

Цветовое пространство : YUV

Субдискретизация насыщенности : 4:2:0

Битовая глубина : 8 бит

Тип развёртки : Прогрессивная

Бит/(Пиксели*Кадры) : 0.201

Размер потока : 1,28 Гбайт (87%)

Заголовок : #stillet

Библиотека кодирования : x264 core 152 r2851bm ba24899

Настройки программы : cabac=1 / ref=12 / deblock=1:-3:-3 / analyse=0x3:0x113 / me=umh / subme=11 / psy=1 / psy_rd=1.00:0.15 / mixed_ref=1 / me_range=32 / chroma_me=1 / trellis=2 / 8x8dct=1 / cqm=0 / deadzone=21,11 / fast_pskip=0 / chroma_qp_offset=-3 / threads=8 / lookahead_threads=3 / sliced_threads=0 / nr=0 / decimate=0 / interlaced=0 / bluray_compat=0 / constrained_intra=0 / bframes=11 / b_pyramid=2 / b_adapt=2 / b_bias=0 / direct=3 / weightb=1 / open_gop=0 / weightp=2 / keyint=240 / keyint_min=23 / scenecut=40 / intra_refresh=0 / rc=2pass / mbtree=0 / bitrate=1354 / ratetol=1.0 / qcomp=0.60 / qpmin=0 / qpmax=69 / qpstep=4 / cplxblur=20.0 / qblur=0.5 / ip_ratio=1.40 / pb_ratio=1.30 / aq=1:1.00

Язык : English

Default : Да

Forced : Нет



Аудио

Идентификатор : 2

Формат : AC-3

Формат/Информация : Audio Coding 3

Коммерческое название : Dolby Digital

Идентификатор кодека : A_AC3

Продолжительность : 2 ч. 14 м.

Вид битрейта : Постоянный

Битрейт : 192 Кбит/сек

Каналы : 2 канала

Channel layout : L R

Частота : 48,0 КГц

Частота кадров : 31,250 кадров/сек (1536 SPF)

Метод сжатия : С потерями

Размер потока : 185 Мбайт (12%)

Заголовок : Blu-ray EUR

Язык : Russian

Default : Да

Forced : Да



Текст #1

Идентификатор : 3

Формат : UTF-8

Идентификатор кодека : S_TEXT/UTF8

Идентификатор кодека/Информация : UTF-8 Plain Text

Продолжительность : 2 ч. 13 м.

Битрейт : 0 бит/сек

Count of elements : 7

Размер потока : 381 байт (0%)

Заголовок : Forced

Язык : Russian

Default : Да

Forced : Да



Текст #2

Идентификатор : 4

Формат : UTF-8

Идентификатор кодека : S_TEXT/UTF8

Идентификатор кодека/Информация : UTF-8 Plain Text

Продолжительность : 2 ч. 13 м.

Битрейт : 89 бит/сек

Count of elements : 1730

Размер потока : 87,4 Кбайт (0%)

Заголовок : Full

Язык : Russian

Default : Нет

Forced : Нет



Текст #3

Идентификатор : 5

Формат : UTF-8

Идентификатор кодека : S_TEXT/UTF8

Идентификатор кодека/Информация : UTF-8 Plain Text

Продолжительность : 2 ч. 5 м.

Битрейт : 67 бит/сек

Count of elements : 1664

Размер потока : 62,2 Кбайт (0%)

Заголовок : Full

Язык : English

Default : Нет

Forced : Нет



Текст #4

Идентификатор : 6

Формат : UTF-8

Идентификатор кодека : S_TEXT/UTF8

Идентификатор кодека/Информация : UTF-8 Plain Text

Продолжительность : 2 ч. 8 м.

Битрейт : 70 бит/сек

Count of elements : 2143

Размер потока : 66,0 Кбайт (0%)

Заголовок : SDH

Язык : English

Default : Нет

Forced : Нет



Меню

00:00:00.000 : en:Chapter 01

00:06:02.612 : en:Chapter 02

00:12:05.600 : en:Chapter 03

00:24:24.630 : en:Chapter 04

00:30:18.066 : en:Chapter 05

00:38:39.275 : en:Chapter 06

00:47:06.240 : en:Chapter 07

00:57:35.661 : en:Chapter 08

01:07:18.117 : en:Chapter 09

01:16:24.538 : en:Chapter 10

01:20:07.136 : en:Chapter 11

01:25:45.349 : en:Chapter 12

01:29:35.328 : en:Chapter 13

01:39:53.696 : en:Chapter 14

01:49:37.488 : en:Chapter 15

02:06:21.449 : en:Chapter 16







Скриншоты

Discussion

Comments 0

Post Your Comment

Files in this torrent

FILENAMESIZE
Little.Women.2019.Lic.BDRip.1.46Gb.x264.mkv1.5 GB

Alternative Torrents for 'Little Women Lic'.

TORRENT NAMEADDEDSIZESEEDSPEERSHEALTH
6/17/202012.7 GB00
6/13/20201.5 GB00
6/13/20202.9 GB00