Love Life (2020) S01 (1080p HMAX Webrip X265 10bit AC3-EAC3 5.1 - HxD) [TAoE]

Torrent Details

Love Life (2020) S01 (1080p HMAX Webrip x265 10bit AC3-EAC3 5.1 - HxD) <span style=color:#fc9c6d>[TAoE]</span>
Love Life (2020) S01 (1080p HMAX Webrip x265 10bit AC3-EAC3 5.1 - HxD) <span style=color:#fc9c6d>[TAoE]</span>

NAME
Love Life (2020) S01 (1080p HMAX Webrip x265 10bit AC3-EAC3 5.1 - HxD) [TAoE].torrent
CATEGORY
Television
INFOHASH
dd873f3ed74a990f13daa2e216480ce5521b36d5
SIZE
6.6 GB in 10 files
ADDED
Uploaded on 13-06-2020 by our crawler pet called "Spidey".
SWARM
0 seeders & 0 peers
RATING
No votes yet.

Please login to vote for this torrent.


Description









Love Life (2020) IMDB

























Media Information



General

Unique ID                                : 128584323418545656310876115010415349705 (0x60BC709C4E9537B0D9362D424849CFC9)

Complete name                            : Love Life (2020) S01E01 Augie Jeong (1080p HMAX Webrip x265 10bit EAC3 5.1 - HxD) [TAoE].mkv

Format                                   : Matroska

Format version                           : Version 4

File size                                : 722 MiB

Duration                                 : 30 min 49 s

Overall bit rate                         : 3 275 kb/s

Movie name                               : Love Life (2020) S01E01 Augie Jeong (1080p HMAX Webrip x265 10bit EAC3 5.1 - HxD) [TAoE].mkv

Writing application                      : Lavf58.29.100

Writing library                          : Lavf58.29.100

ErrorDetectionType                       : Per level 1



Video

ID                                       : 1

Format                                   : HEVC

Format/Info                              : High Efficiency Video Coding

Format profile                           : Main [email protected]@Main

Codec ID                                 : V_MPEGH/ISO/HEVC

Duration                                 : 30 min 49 s

Bit rate                                 : 3 016 kb/s

Width                                    : 1 920 pixels

Height                                   : 1 080 pixels

Display aspect ratio                     : 16:9

Frame rate mode                          : Constant

Frame rate                               : 23.976 (24000/1001) FPS

Color space                              : YUV

Chroma subsampling                       : 4:2:0

Bit depth                                : 10 bits

Bits/(Pixel*Frame)                       : 0.061

Stream size                              : 665 MiB (92%)

Title                                    : Encoded by HxD for TAoE

Writing library                          : x265 3.2+35-acc5d16999e2:[Windows][GCC 9.2.1][64 bit] 10bit

Encoding settings                        : cpuid=1111039 / frame-threads=3 / numa-pools=8 / wpp / no-pmode / no-pme / no-psnr / no-ssim / log-level=2 / input-csp=1 / input-res=1920x1080 / interlace=0 / total-frames=0 / level-idc=0 / high-tier=1 / uhd-bd=0 / ref=4 / no-allow-non-conformance / no-repeat-headers / annexb / no-aud / no-hrd / info / hash=0 / no-temporal-layers / open-gop / min-keyint=23 / keyint=250 / gop-lookahead=0 / bframes=8 / b-adapt=2 / b-pyramid / bframe-bias=0 / rc-lookahead=80 / lookahead-slices=4 / scenecut=40 / hist-scenecut=0 / radl=0 / no-splice / no-intra-refresh / ctu=64 / min-cu-size=8 / no-rect / no-amp / max-tu-size=32 / tu-inter-depth=1 / tu-intra-depth=1 / limit-tu=0 / rdoq-level=2 / dynamic-rd=0.00 / no-ssim-rd / signhide / no-tskip / nr-intra=0 / nr-inter=0 / no-constrained-intra / no-strong-intra-smoothing / max-merge=3 / limit-refs=3 / limit-modes / me=3 / subme=5 / merange=57 / temporal-mvp / no-frame-dup / no-hme / weightp / no-weightb / no-analyze-src-pics / deblock=0:0 / sao / no-sao-non-deblock / rd=4 / selective-sao=4 / no-early-skip / rskip / no-fast-intra / no-tskip-fast / no-cu-lossless / no-b-intra / no-splitrd-skip / rdpenalty=0 / psy-rd=1.30 / psy-rdoq=2.00 / no-rd-refine / no-lossless / cbqpoffs=0 / crqpoffs=0 / rc=crf / crf=21.0 / qcomp=0.60 / qpstep=4 / stats-write=0 / stats-read=0 / ipratio=1.40 / pbratio=1.30 / aq-mode=4 / aq-strength=1.10 / cutree / zone-count=0 / no-strict-cbr / qg-size=32 / no-rc-grain / qpmax=69 / qpmin=0 / no-const-vbv / sar=1 / overscan=0 / videoformat=5 / range=0 / colorprim=2 / transfer=2 / colormatrix=2 / chromaloc=0 / display-window=0 / cll=0,0 / min-luma=0 / max-luma=1023 / log2-max-poc-lsb=8 / vui-timing-info / vui-hrd-info / slices=1 / no-opt-qp-pps / no-opt-ref-list-length-pps / no-multi-pass-opt-rps / scenecut-bias=0.05 / hist-threshold=0.01 / no-opt-cu-delta-qp / no-aq-motion / no-hdr10 / no-hdr10-opt / no-dhdr10-opt / no-idr-recovery-sei / analysis-reuse-level=0 / analysis-save-reuse-level=0 / analysis-load-reuse-level=0 / scale-factor=0 / refine-intra=0 / refine-inter=0 / refine-mv=1 / refine-ctu-distortion=0 / no-limit-sao / ctu-info=0 / no-lowpass-dct / refine-analysis-type=0 / copy-pic=1 / max-ausize-factor=1.0 / no-dynamic-refine / no-single-sei / no-hevc-aq / no-svt / no-field / qp-adaptation-range=1.00 / no-scenecut-aware-qpconformance-window-offsets / right=0 / bottom=0

Default                                  : Yes

Forced                                   : No

Color range                              : Limited



Audio

ID                                       : 2

Format                                   : E-AC-3

Format/Info                              : Enhanced AC-3

Commercial name                          : Dolby Digital Plus

Codec ID                                 : A_EAC3

Duration                                 : 30 min 48 s

Bit rate mode                            : Constant

Bit rate                                 : 256 kb/s

Channel(s)                               : 6 channels

Channel layout                           : L R C LFE Ls Rs

Sampling rate                            : 48.0 kHz

Frame rate                               : 31.250 FPS (1536 SPF)

Bit depth                                : 32 bits

Compression mode                         : Lossy

Stream size                              : 56.4 MiB (8%)

Language                                 : English

Service kind                             : Complete Main

Default                                  : Yes

Forced                                   : No



Text #1

ID                                       : 3

Format                                   : UTF-8

Codec ID                                 : S_TEXT/UTF8

Codec ID/Info                            : UTF-8 Plain Text

Duration                                 : 30 min 41 s

Bit rate                                 : 116 b/s

Count of elements                        : 1045

Stream size                              : 26.2 KiB (0%)

Title                                    : SDH

Language                                 : English

Default                                  : No

Forced                                   : No



Text #2

ID                                       : 4

Format                                   : UTF-8

Codec ID                                 : S_TEXT/UTF8

Codec ID/Info                            : UTF-8 Plain Text

Duration                                 : 30 min 37 s

Bit rate                                 : 111 b/s

Count of elements                        : 984

Stream size                              : 25.0 KiB (0%)

Language                                 : English

Default                                  : No

Forced                                   : No







Source

1080p HMAX WEB-DL NTb



Hello everyone,

We are TAoE, a small team of passionate encoders who love encoding. We try our best to provide you with high quality releases.



Requests for movies and shows are welcome.

We have a form for encode requests which can be found here

Encode requests form

submit your request and it will be added to our encoding request list

You can view our encoding request list here

Encode requests list





When or if we encode it will depend on if we can obtain a good source to encode with and

if one of the TAoE encoders chooses to encode it. Unfortunately we are not able to encode everything,

new members are welcome as that helps us encode more content!



If you would like to join TAoE submit your request here!

TAoE member applications form









.........................................................................................................................................

Discussion

Comments 0

Post Your Comment

Files in this torrent

FILENAMESIZE
Love Life (2020) S01E01 Augie Jeong (1080p HMAX Webrip x265 10bit EAC3 5.1 - HxD) [TAoE].mkv722 MB
Love Life (2020) S01E02 Bradley Field (1080p HMAX Webrip x265 10bit EAC3 5.1 - HxD) [TAoE].mkv627.5 MB
Love Life (2020) S01E03 Danny Two Phones (1080p HMAX Webrip x265 10bit EAC3 5.1 - HxD) [TAoE].mkv524.8 MB
Love Life (2020) S01E04 Magnus Lund (1080p HMAX Webrip x265 10bit AC3 5.1 - HxD) [TAoE].mkv602.5 MB
Love Life (2020) S01E05 Luke Ducharme (1080p HMAX Webrip x265 10bit AC3 5.1 - HxD) [TAoE].mkv606.8 MB
Love Life (2020) S01E06 Magnus Lund Part II (1080p HMAX Webrip x265 10bit AC3 5.1 - HxD) [TAoE].mkv567.1 MB
Love Life (2020) S01E07 Claudia Hoffman (1080p HMAX Webrip x265 10bit AC3 5.1 - HxD) [TAoE].mkv794 MB
Love Life (2020) S01E08 Sara Yang (1080p HMAX Webrip x265 10bit AC3 5.1 - HxD) [TAoE].mkv876.4 MB
Love Life (2020) S01E09 Augie Again (1080p HMAX Webrip x265 10bit AC3 5.1 - HxD) [TAoE].mkv680.1 MB
Love Life (2020) S01E10 The Person (1080p HMAX Webrip x265 10bit AC3 5.1 - HxD) [TAoE].mkv772.3 MB

Alternative Torrents for 'Love Life HMAX bit EAC HxD'.

TORRENT NAMEADDEDSIZESEEDSPEERSHEALTH
8/6/20201.4 GB12871037
8/6/2020717 MB912591
8/6/20201.3 GB746517
8/6/2020610 MB532391
7/30/20201.4 GB4687
7/30/2020717 MB3896
Yesterday389 MB327157
Yesterday2.2 GB264232
8/6/2020365 MB245154
7/30/20201.3 GB2388
Yesterday1 GB21379
7/30/2020619 MB1896
Yesterday2.3 GB177288
8/5/2020697 MB16714
7/31/20203.2 GB16319