Artemis Fowl 2020 WEB-DL 1080p

Torrent Details

Artemis Fowl 2020 WEB-DL 1080p

NAME
Artemis Fowl 2020 WEB-DL 1080p.torrent
CATEGORY
Movies
INFOHASH
1c1888bfeb0000656544ea24ef7cfc046e379381
SIZE
6.2 GB in 1 file
ADDED
Uploaded on 16-06-2020 by our crawler pet called "Spidey".
SWARM
0 seeders & 0 peers
RATING
No votes yet.

Please login to vote for this torrent.


Description

Информация о фильме

Название: Артемис Фаул

Оригинальное название: Artemis Fowl

Год выхода: 2020

Жанр: Фантастика, фэнтези, приключения, семейный

Режиссер: Кеннет Брана

В ролях: Майкл Раус, Рэйчил Офори, Джош Гад, Фердия Шоу, Симона Кирби, Джо О Гради, Финиан Дафф Леннон, Грейс Финхем, Тоби Эден, Джерард Хоран



О фильме:

Укрытый от посторонних глаз глубоко под поверхностью земной коры таится целый мир, населенный гномами, эльфами, пикси, лепреконами, брауни и другими волшебными существами. Они спрятались от людей и создали свою цивилизацию. Их тайна так и оставалась бы нераскрытой, если бы не юный Артемис Фаул — прирожденный мошенник и единственный наследник древнего рода криминальных гениев. Он сумел не только найти доказательства существования подземного мира, но и придумал дерзкий план, как ограбить его обитателей.









Страна: США

Студия: Walt Disney Pictures, TKBC

Продолжительность: 01:34:21

Перевод: Профессиональный многоголосый | HDRezka Studio



Файл

Кодек: AVC

Качество: WEB-DL 1080p

Видео: MPEG-4 AVC, 8473 Kбит/с, 1920x1080, 23.976 кадр/с

Аудио #1: Русский (АС3, 6 ch, 448 Кбит/с, 48.0 KHz) Профессиональный (многоголосый, закадровый) HDRezka Studio

Аудио #2: Английский (АС3, 6 ch, 448 Кбит/с, 48.0 KHz)

Субтитры: Русские (Forced), английские, испанские, французские, немецкие, итальянские, португальские

► Без Рекламы!

Трейлер

MediaInfo Источник: Artemis.Fowl.2020.1080p.WEB.H264-SECRECY

General

Unique ID : 217792402309923836434038262549092573461 (0xA3D94A7A2EF63D118C49E1F2BBE52115)

Complete name : Artemis.Fowl.2020.WEB-DL.1080p.mkv

Format : Matroska

Format version : Version 4

File size : 6.18 GiB

Duration : 1 h 34 min

Overall bit rate mode : Variable

Overall bit rate : 9 372 kb/s

Encoded date : UTC 2020-06-16 06:57:41

Writing application : mkvmerge v7.1.0 ('Good Love') 64bit built on Jul 27 2014 13:06:55

Writing library : libebml v1.3.0 + libmatroska v1.4.1



Video

ID : 1

Format : AVC

Format/Info : Advanced Video Codec

Format profile : [email protected]

Format settings : CABAC / 4 Ref Frames

Format settings, CABAC : Yes

Format settings, Reference fra : 4 frames

Codec ID : V_MPEG4/ISO/AVC

Duration : 1 h 34 min

Bit rate mode : Variable

Bit rate : 8 473 kb/s

Maximum bit rate : 12.7 Mb/s

Width : 1 920 pixels

Height : 1 080 pixels

Display aspect ratio : 16:9

Frame rate mode : Constant

Frame rate : 23.976 (24000/1001) FPS

Color space : YUV

Chroma subsampling : 4:2:0

Bit depth : 8 bits

Scan type : Progressive

Bits/(Pixel*Frame) : 0.170

Stream size : 5.58 GiB (90%)

Language : English

Default : Yes

Forced : No

Color range : Limited

Color primaries : BT.709

Transfer characteristics : BT.709

Matrix coefficients : BT.709



Audio #1

ID : 2

Format : AC-3

Format/Info : Audio Coding 3

Commercial name : Dolby Digital

Codec ID : A_AC3

Duration : 1 h 34 min

Bit rate mode : Constant

Bit rate : 448 kb/s

Channel(s) : 6 channels

Channel layout : L R C LFE Ls Rs

Sampling rate : 48.0 kHz

Frame rate : 31.250 FPS (1536 SPF)

Compression mode : Lossy

Stream size : 302 MiB (5%)

Title : MVO | HDRezka Studio

Language : Russian

Service kind : Complete Main

Default : Yes

Forced : No



Audio #2

ID : 3

Format : AC-3

Format/Info : Audio Coding 3

Commercial name : Dolby Digital

Codec ID : A_AC3

Duration : 1 h 34 min

Bit rate mode : Constant

Bit rate : 448 kb/s

Channel(s) : 6 channels

Channel layout : L R C LFE Ls Rs

Sampling rate : 48.0 kHz

Frame rate : 31.250 FPS (1536 SPF)

Compression mode : Lossy

Stream size : 302 MiB (5%)

Language : English

Service kind : Complete Main

Default : No

Forced : No



Text #1

ID : 4

Format : UTF-8

Codec ID : S_TEXT/UTF8

Codec ID/Info : UTF-8 Plain Text

Duration : 57 min 15 s

Bit rate : 3 b/s

Count of elements : 33

Stream size : 1.67 KiB (0%)

Title : Forced

Language : Russian

Default : Yes

Forced : No



Text #2

ID : 5

Format : UTF-8

Codec ID : S_TEXT/UTF8

Codec ID/Info : UTF-8 Plain Text

Duration : 1 h 27 min

Bit rate : 63 b/s

Count of elements : 1515

Stream size : 40.7 KiB (0%)

Title : English

Language : English

Default : No

Forced : No



Text #3

ID : 6

Format : UTF-8

Codec ID : S_TEXT/UTF8

Codec ID/Info : UTF-8 Plain Text

Duration : 1 h 33 min

Bit rate : 54 b/s

Count of elements : 1270

Stream size : 37.6 KiB (0%)

Title : French

Language : French

Default : No

Forced : No



Text #4

ID : 7

Format : UTF-8

Codec ID : S_TEXT/UTF8

Codec ID/Info : UTF-8 Plain Text

Duration : 1 h 33 min

Bit rate : 58 b/s

Count of elements : 1414

Stream size : 40.1 KiB (0%)

Title : German

Language : German

Default : No

Forced : No



Text #5

ID : 8

Format : UTF-8

Codec ID : S_TEXT/UTF8

Codec ID/Info : UTF-8 Plain Text

Duration : 1 h 33 min

Bit rate : 57 b/s

Count of elements : 1360

Stream size : 39.6 KiB (0%)

Title : Italian

Language : Italian

Default : No

Forced : No



Text #6

ID : 9

Format : UTF-8

Codec ID : S_TEXT/UTF8

Codec ID/Info : UTF-8 Plain Text

Duration : 1 h 27 min

Bit rate : 68 b/s

Count of elements : 1364

Stream size : 43.6 KiB (0%)

Title : Spanish

Language : Spanish

Default : No

Forced : No



Text #7

ID : 10

Format : UTF-8

Codec ID : S_TEXT/UTF8

Codec ID/Info : UTF-8 Plain Text

Duration : 1 h 33 min

Bit rate : 59 b/s

Count of elements : 1343

Stream size : 41.0 KiB (0%)

Title : Portuguese

Language : Portuguese

Default : No

Forced : No

Скриншоты

Discussion

Comments 0

Post Your Comment

Files in this torrent

FILENAMESIZE
Artemis.Fowl.2020.WEB-DL.1080p.mkv6.2 GB

Alternative Torrents for 'Artemis Fowl'.

TORRENT NAMEADDEDSIZESEEDSPEERSHEALTH
6/29/20203 GB230
9/12/201225 MB191
8/13/20202.3 GB160
10/14/20201.8 GB142
7/23/20204.1 GB51
8/3/202011.3 GB30
7/23/20202.4 GB30
8/3/2020699 MB20
7/6/20205.8 GB20
11/1/202012.8 GB10
9/30/20201.2 GB10
8/4/20202.2 GB12
7/21/20203.6 GB10
7/15/2020800 MB10
7/7/20202.1 GB10