Stringer 2014 BluRay 1080p ELEKTRI4KA UNIONGANG

Torrent Details


Stringer 2014 BluRay 1080p<span style=color:#fc9c6d> ELEKTRI4KA UNIONGANG</span>

NAME
Stringer 2014 BluRay 1080p ELEKTRI4KA UNIONGANG.torrent
CATEGORY
Movies
INFOHASH
ed5ebe98f15e6a8c36a9b9bb765d5e884e39a070
SIZE
10.2 GB in 1 file
ADDED
Uploaded on 16-06-2020 by our crawler pet called "Spidey".
SWARM
0 seeders & 0 peers
RATING
No votes yet.

Please login to vote for this torrent.


Description

Информация о фильме

Название: Стрингер

Оригинальное название: Nightcrawler

Год выхода: 2014

Жанр: триллер, драма, криминал

Режиссер: Дэн Гилрой

В ролях: Джейк Джилленхол, Рене Руссо, Риз Ахмед, Билл Пэкстон, Майкл Пападжон, Марко Родригес, Джеймс Хуанг, Кент Шокнек, Пэт Харви, Шэрон Тэй



О фильме: Луи Блум пытается найти работу. После того как он видит, как любительская съемочная группа снимает автомобильную аварию, он меняет ворованный велосипед на камеру и снимает последствия угона автомобиля, чтобы продать местной телевизионной компании. Директор новостей Нина покупает запись и убеждает его продолжить работу. Вскоре становится ясно, что ради по-настоящему стоящего материала Луи не остановится ни перед чем…







Выпущено: США / Bold Films

Продолжительность: 01:58:05

Озвучивание: Профессиональное (многоголосое) | Лицензия R5



Файл

Формат: MKV

Качество: BDRip 1080p

Видео: AVC, 9999 Kb/s, 1920x800

Аудио #1: Russian: 48 kHz, AC3 Dolby Digital, 3/2 (L, C, R, l, r) + LFE ch, ~448 Kbps | Лицензия

Аудио #2: Ukrainian: 48 kHz, AC3 Dolby Digital, 3/2 (L, C, R, l, r) + LFE ch, ~448 Kbps | Студия "Цікава ідея"

Аудио #3: English: 48 kHz, Digital Theater Systems, 3/2 (L, C, R, l, r) + LFE ch, ~1509 Kbps | Original

Субтитры: Russian, English

Дополнительно: Сохранены оригинальные чаптеры.



Релиз группы: &



MediaInfo:Complete name: Nightcrawler.2014.BluRay.1080p.ELEKTRI4KA.UNIONGANG.mkv

Format: Matroska

Format version: Version 4 / Version 2

File size: 10.2 GiB

Duration: 1 h 58 min

Overall bit rate: 12.4 Mb/s

Movie name: .ELEKTRI4KA.UNIONGANG.

Encoded date: UTC 2020-06-15 12:17:47

Writing application: mkvmerge v8.3.0 ('Over the Horizon') 64bit

Writing library: libebml v1.3.1 + libmatroska v1.4.2



Video

ID: 1

Format: AVC

Format/Info: Advanced Video Codec

Format profile: [email protected]

Format settings, CABAC: Yes

Format settings, Reference frames: 5 frames

Codec ID: V_MPEG4/ISO/AVC

Duration: 1 h 58 min

Bit rate: 9 999 kb/s

Width: 1 920 pixels

Height: 800 pixels

Display aspect ratio: 2.40:1

Frame rate mode: Constant

Frame rate: 23.976 (24000/1001) FPS

Color space: YUV

Chroma subsampling: 4:2:0

Bit depth: 8 bits

Scan type: Progressive

Bits/(Pixel*Frame): 0.272

Stream size: 8.24 GiB (80%)

Writing library: x264 core 140 r2377 1ca7bb9

Encoding settings: cabac=1 / ref=5 / deblock=1:-3:-3 / analyse=0x3:0x133 / me=umh / subme=10 / psy=1 / psy_rd=1.00:0.25 / mixed_ref=1 / me_range=48 / chroma_me=1 / trellis=2 / 8x8dct=1 / cqm=0 / deadzone=21, 11 / fast_pskip=0 / chroma_qp_offset=-4 / threads=12 / lookahead_threads=2 / sliced_threads=0 / nr=0 / decimate=1 / interlaced=0 / bluray_compat=0 / constrained_intra=0 / bframes=9 / b_pyramid=2 / b_adapt=2 / b_bias=0 / direct=3 / weightb=1 / open_gop=0 / weightp=2 / keyint=240 / keyint_min=22 / scenecut=40 / intra_refresh=0 / rc_lookahead=160 / rc=2pass / mbtree=1 / bitrate=9999 / ratetol=1.0 / qcomp=0.60 / qpmin=10 / qpmax=59 / qpstep=4 / cplxblur=20.0 / qblur=0.5 / vbv_maxrate=40000 / vbv_bufsize=30000 / nal_hrd=none / filler=0 / ip_ratio=1.30 / aq=2:0.70

Language: English

Default: Yes

Forced: No

Color range: Limited

Color primaries: BT.709

Transfer characteristics: BT.709

Matrix coefficients: BT.709



Audio #1

ID: 2

Format: AC-3

Format/Info: Audio Coding 3

Mode extension: CM (complete main)

Format settings, Endianness: Big

Codec ID: A_AC3

Duration: 1 h 58 min

Bit rate mode: Constant

Bit rate: 448 kb/s

Channel(s): 6 channels

Channel positions: Front: L C R, Side: L R, LFE

Sampling rate: 48.0 kHz

Frame rate: 31.250 FPS (1536 spf)

Bit depth: 16 bits

Compression mode: Lossy

Stream size: 378 MiB (4%)

Title: Lic R5

Language: Russian

Default: Yes

Forced: No



Audio #2

ID: 3

Format: AC-3

Format/Info: Audio Coding 3

Mode extension: CM (complete main)

Format settings, Endianness: Big

Codec ID: A_AC3

Duration: 1 h 58 min

Bit rate mode: Constant

Bit rate: 448 kb/s

Channel(s): 6 channels

Channel positions: Front: L C R, Side: L R, LFE

Sampling rate: 48.0 kHz

Frame rate: 31.250 FPS (1536 spf)

Bit depth: 16 bits

Compression mode: Lossy

Stream size: 378 MiB (4%)

Language: Ukrainian

Default: No

Forced: No



Audio #3

ID: 4

Format: DTS

Format/Info: Digital Theater Systems

Mode: 16

Format settings, Endianness: Big

Codec ID: A_DTS

Duration: 1 h 58 min

Bit rate mode: Constant

Bit rate: 1 509 kb/s

Channel(s): 6 channels

Channel positions: Front: L C R, Side: L R, LFE

Sampling rate: 48.0 kHz

Frame rate: 93.750 FPS (512 spf)

Bit depth: 24 bits

Compression mode: Lossy

Stream size: 1.24 GiB (12%)

Language: English

Default: No

Forced: No



Text #1

ID: 5

Format: UTF-8

Codec ID: S_TEXT/UTF8

Codec ID/Info: UTF-8 Plain Text

Duration: 1 h 52 min

Bit rate: 125 b/s

Count of elements: 1429

Stream size: 104 KiB (0%)

Language: Russian

Default: Yes

Forced: No



Text #2

ID: 6

Format: PGS

Muxing mode: zlib

Codec ID: S_HDMV/PGS

Codec ID/Info: Picture based subtitle format used on BDs/HD-DVDs

Duration: 1 h 56 min

Bit rate: 16.7 kb/s

Count of elements: 4234

Stream size: 13.9 MiB (0%)

Language: English

Default: No

Forced: No



Menu

00:00:00.000: en:1

00:06:24.509: en:2

00:11:22.849: en:3

00:16:16.350: en:4

00:23:49.803: en:5

00:30:47.054: en:6

00:36:29.521: en:7

00:42:44.479: en:8

00:46:55.604: en:9

00:53:16.735: en:10

01:00:54.150: en:11

01:07:27.252: en:12

01:13:05.798: en:13

01:18:23.908: en:14

01:25:06.059: en:15

01:29:24.150: en:16

01:36:17.981: en:17

01:44:54.830: en:18

01:48:37.553: en:19

01:53:45.944: en:29Скриншоты

Discussion

Comments 0

Post Your Comment

Files in this torrent

FILENAMESIZE
Stringer.2014.BluRay.1080p.ELEKTRI4KA.UNIONGANG.mkv10.2 GB

Alternative Torrents for 'Stringer BluRay'.

TORRENT NAMEADDEDSIZESEEDSPEERSHEALTH
6/16/202010.2 GB00