Jasmin_2020

Torrent Details


Jasmin_2020

NAME
Jasmin_2020.torrent
CATEGORY
Music
INFOHASH
1f2622082c3338464c7eecb48471c86b9899db13
SIZE
3 GB in 1 file
ADDED
Uploaded on 16-06-2020 by our crawler pet called "Spidey".
SWARM
0 seeders & 0 peers
RATING
No votes yet.

Please login to vote for this torrent.


Description

Исполнитель: Жасмин

Жанр: POP

Год выпуска: 2020

Продолжительность: 01:42:00



Отдельная благодарность пользователю kuzmichm2196 за исходник.



Формат: MKV

Качество: HDTV 1080p

Видео кодек: H.264

Аудио кодек: AC-3

Видео: H264; 1920x1080 (16:9); 25.000 fps; ~5 500 kb/s

Аудио: AC-3 48000Hz stereo 192 Кбит/сек



Треклист01. intro

02. Жасмин - Я верю в любовь

03. Жасмин - Ты мое, мое

04. Жасмин - Белая птица

05. Жасмин - Сердце

06. Жасмин - Я мир люблю из-за тебя

07. Жасмин - Руки в рукава

08. Жасмин - Кто Ты

09. Жасмин - Нет, не надо

10. Жасмин - Я могу без тебя

11. Жасмин - Отойди на шаг

12. Жасмин - Дожди

13. Николай Басков и Жасмин - Только ты

14. Жасмин - Свадебные истории

15. Жасмин - Шалом

16. Денис Клявер и Жасмин - Любовь-отрава

17. Жасмин - Самый любимый

18. Жасмин с дочкой Маргаритой - Счастливая песня

19. Лев Лещенко и Жасмин - Счастье

20. Жасмин - Три точки тире

21. Жасмин - Похожи

22. Татьяна Навка и Жасмин - Прощай, моя помада

23. Жасмин - Попурри....Летний день....Перепишу любовь....Головоломка....Дольче Вита....Да

24. Жасмин - ВеснаMedaInfoComplete name : /home/Загрузки/Jasmin_2020.mkv

Format : Matroska

Format version : Version 4

File size : 3.05 GiB

Duration : 1 h 42 min

Overall bit rate mode : Variable

Overall bit rate : 4 249 kb/s

Movie name : Jasmin_rutor.info

Encoded date : UTC 2020-06-16 07:06:54

Writing application : mkvmerge v47.0.0 ('Black Flag') 64-bit

Writing library : libebml v1.3.10 + libmatroska v1.5.2



Video

ID : 2

Format : AVC

Format/Info : Advanced Video Codec

Format profile : [email protected]

Format settings : CABAC / 4 Ref Frames

Format settings, CABAC : Yes

Format settings, Reference frames : 4 frames

Codec ID : V_MPEG4/ISO/AVC

Duration : 1 h 42 min

Bit rate mode : Variable

Bit rate : 4 055 kb/s

Nominal bit rate : 5 533 kb/s

Maximum bit rate : 4 500 kb/s

Width : 1 920 pixels

Height : 1 080 pixels

Display aspect ratio : 16:9

Frame rate mode : Constant

Frame rate : 25.000 FPS

Color space : YUV

Chroma subsampling : 4:2:0

Bit depth : 8 bits

Scan type : Progressive

Bits/(Pixel*Frame) : 0.078

Stream size : 2.91 GiB (95%)

Writing library : x264 core 152 r2245

Encoding settings : cabac=1 / ref=4 / deblock=1:0:0 / analyse=0x3:0x113 / me=hex / subme=4 / psy=1 / psy_rd=1.00:0.00 / mixed_ref=0 / me_range=16 / chroma_me=1 / trellis=1 / 8x8dct=1 / cqm=0 / deadzone=21,11 / fast_pskip=1 / chroma_qp_offset=0 / threads=6 / lookahead_threads=1 / sliced_threads=0 / nr=0 / decimate=1 / interlaced=0 / bluray_compat=0 / constrained_intra=0 / bframes=3 / b_pyramid=2 / b_adapt=1 / b_bias=0 / direct=1 / weightb=1 / open_gop=0 / weightp=1 / keyint=75 / keyint_min=7 / scenecut=0 / intra_refresh=0 / rc_lookahead=20 / rc=cbr / mbtree=1 / bitrate=5533 / ratetol=1.0 / qcomp=0.60 / qpmin=0 / qpmax=69 / qpstep=4 / vbv_maxrate=5533 / vbv_bufsize=13500 / nal_hrd=none / filler=0 / ip_ratio=1.40 / aq=1:1.00

Default : Yes

Forced : No



Audio

ID : 1

Format : AC-3

Format/Info : Audio Coding 3

Commercial name : Dolby Digital

Codec ID : A_AC3

Duration : 1 h 42 min

Bit rate mode : Constant

Bit rate : 192 kb/s

Channel(s) : 2 channels

Channel layout : L R

Sampling rate : 48.0 kHz

Frame rate : 31.250 FPS (1536 SPF)

Compression mode : Lossy

Stream size : 141 MiB (5%)

Service kind : Complete Main

Default : Yes

Forced : No Скриншоты

Discussion

Comments 0

Post Your Comment

Files in this torrent

FILENAMESIZE
Jasmin_2020.mkv3 GB

Alternative Torrents for 'Jasmin'.

TORRENT NAMEADDEDSIZESEEDSPEERSHEALTH
5/19/20211.1 GB90
5/14/20211.8 GB31
3/9/2021319 MB00
2/1/202111 MB01
12/26/2020363 MB00
12/26/2020250 MB00
11/18/20201.3 GB00
11/3/20201.2 GB01
10/28/20201.2 GB00
10/2/2020334 MB00
7/12/2020782 kB00
6/16/20203 GB00
5/31/2020117 MB00
5/29/20201.5 GB00
5/24/2020230 kB00