Spider-Man Into The Spider-Verse (2018) (1080p BDRip X265 10bit TrueHD 7.1 Atmos - R0b0t) [TAoE]

Torrent Details


Spider-Man Into the Spider-Verse (2018) (1080p BDRip x265 10bit TrueHD 7.1 Atmos - r0b0t) <span style=color:#fc9c6d>[TAoE]</span>

NAME
Spider-Man Into the Spider-Verse (2018) (1080p BDRip x265 10bit TrueHD 7.1 Atmos - r0b0t) [TAoE].torrent
CATEGORY
Movies
INFOHASH
5344ff729c65a6b01bebe44f98de6a461187a49d
SIZE
10.6 GB in 1 file
ADDED
Uploaded on 16-06-2020 by our crawler pet called "Spidey".
SWARM
0 seeders & 0 peers
RATING
No votes yet.

Please login to vote for this torrent.


Description









Spider-Man: Into the Spider-Verse (2018) IMDB















Source

Spider.Man.Into.The.Spider.Verse.2018.1080p.BluRay.REMUX.AVC.DTS-HD.MA.TrueHD.7.1.Atmos-FGT



Media Information

General

Unique ID                   : 102918737079292882009053043254903476324 (0x4D6D6D818B917D10A3D3AA0E90049064)

Complete name               : Spider-Man Into the Spider-Verse (2018) (1080p BDRip x265 10bit TrueHD 7.1 Atmos - r0b0t) [TAoE].mkv

Format                      : Matroska

Format version              : Version 4

File size                   : 10.6 GiB

Duration                    : 1 h 56 min

Overall bit rate mode       : Variable

Overall bit rate            : 13.0 Mb/s

Writing application         : Lavf58.29.100

Writing library             : Lavf58.29.100

ErrorDetectionType          : Per level 1



Video

ID                          : 1

Format                      : HEVC

Format/Info                 : High Efficiency Video Coding

Format profile              : Main [email protected]@Main

Codec ID                    : V_MPEGH/ISO/HEVC

Duration                    : 1 h 56 min

Bit rate                    : 9 350 kb/s

Width                       : 1 920 pixels

Height                      : 1 080 pixels

Display aspect ratio        : 16:9

Frame rate mode             : Constant

Frame rate                  : 23.976 (24000/1001) FPS

Color space                 : YUV

Chroma subsampling          : 4:2:0

Bit depth                   : 10 bits

Bits/(Pixel*Frame)          : 0.188

Stream size                 : 7.63 GiB (72%)

Title                       : Encoded by r0b0t for TAoE using Shinguru V1.2

Writing library             : x265 3.2+35-acc5d16999e2:[Windows][GCC 9.2.1][64 bit] 10bit

Encoding settings           : cpuid=1111039 / frame-threads=5 / numa-pools=12,12,12,12 / wpp / no-pmode / no-pme / no-psnr / no-ssim / log-level=2 / input-csp=1 / input-res=1920x1080 / interlace=0 / total-frames=0 / level-idc=0 / high-tier=1 / uhd-bd=0 / ref=4 / no-allow-non-conformance / no-repeat-headers / annexb / no-aud / no-hrd / info / hash=0 / no-temporal-layers / open-gop / min-keyint=23 / keyint=250 / gop-lookahead=0 / bframes=8 / b-adapt=2 / b-pyramid / bframe-bias=0 / rc-lookahead=80 / lookahead-slices=4 / scenecut=40 / hist-scenecut=0 / radl=0 / no-splice / no-intra-refresh / ctu=64 / min-cu-size=8 / no-rect / no-amp / max-tu-size=32 / tu-inter-depth=1 / tu-intra-depth=1 / limit-tu=0 / rdoq-level=2 / dynamic-rd=0.00 / no-ssim-rd / signhide / no-tskip / nr-intra=0 / nr-inter=0 / no-constrained-intra / no-strong-intra-smoothing / max-merge=3 / limit-refs=3 / limit-modes / me=3 / subme=5 / merange=57 / temporal-mvp / no-frame-dup / no-hme / weightp / no-weightb / no-analyze-src-pics / deblock=0:0 / sao / no-sao-non-deblock / rd=4 / selective-sao=4 / no-early-skip / rskip / no-fast-intra / no-tskip-fast / no-cu-lossless / no-b-intra / no-splitrd-skip / rdpenalty=0 / psy-rd=1.30 / psy-rdoq=2.00 / no-rd-refine / no-lossless / cbqpoffs=0 / crqpoffs=0 / rc=crf / crf=17.0 / qcomp=0.60 / qpstep=4 / stats-write=0 / stats-read=0 / ipratio=1.40 / pbratio=1.30 / aq-mode=4 / aq-strength=1.10 / cutree / zone-count=0 / no-strict-cbr / qg-size=32 / no-rc-grain / qpmax=69 / qpmin=0 / no-const-vbv / sar=1 / overscan=0 / videoformat=5 / range=0 / colorprim=2 / transfer=2 / colormatrix=2 / chromaloc=0 / display-window=0 / cll=0,0 / min-luma=0 / max-luma=1023 / log2-max-poc-lsb=8 / vui-timing-info / vui-hrd-info / slices=1 / no-opt-qp-pps / no-opt-ref-list-length-pps / no-multi-pass-opt-rps / scenecut-bias=0.05 / hist-threshold=0.01 / no-opt-cu-delta-qp / no-aq-motion / no-hdr10 / no-hdr10-opt / no-dhdr10-opt / no-idr-recovery-sei / analysis-reuse-level=0 / analysis-save-reuse-level=0 / analysis-load-reuse-level=0 / scale-factor=0 / refine-intra=0 / refine-inter=0 / refine-mv=1 / refine-ctu-distortion=0 / no-limit-sao / ctu-info=0 / no-lowpass-dct / refine-analysis-type=0 / copy-pic=1 / max-ausize-factor=1.0 / no-dynamic-refine / no-single-sei / no-hevc-aq / no-svt / no-field / qp-adaptation-range=1.00 / no-scenecut-aware-qpconformance-window-offsets / right=0 / bottom=0

Language                    : English

Default                     : No

Forced                      : No

Color range                 : Limited



Audio

ID                          : 2

Format                      : MLP FBA 16-ch

Format/Info                 : Meridian Lossless Packing FBA with 16-channel presentation

Commercial name             : Dolby TrueHD with Dolby Atmos

Codec ID                    : A_TRUEHD

Duration                    : 1 h 56 min

Bit rate mode               : Variable

Bit rate                    : 3 267 kb/s

Maximum bit rate            : 4 935 kb/s

Channel(s)                  : 8 channels

Channel layout              : L R C LFE Ls Rs Lb Rb

Sampling rate               : 48.0 kHz

Frame rate                  : 1 200.000 FPS (40 SPF)

Bit depth                   : 24 bits

Compression mode            : Lossless

Delay relative to video     : 8 ms

Stream size                 : 2.67 GiB (25%)

Language                    : English

Default                     : Yes

Forced                      : No

Number of dynamic objects   : 11

Bed channel count           : 1 channel

Bed channel configuration   : LFE



Text #1

ID                          : 3

Format                      : UTF-8

Codec ID                    : S_TEXT/UTF8

Codec ID/Info               : UTF-8 Plain Text

Duration                    : 1 h 55 min

Bit rate                    : 55 b/s

Count of elements           : 1540

Stream size                 : 46.9 KiB (0%)

Title                       : English-SRT

Language                    : English

Default                     : Yes

Forced                      : No



Text #2

ID                          : 4

Format                      : PGS

Codec ID                    : S_HDMV/PGS

Codec ID/Info               : Picture based subtitle format used on BDs/HD-DVDs

Duration                    : 1 h 56 min

Bit rate                    : 32.3 kb/s

Count of elements           : 2748

Stream size                 : 26.9 MiB (0%)

Title                       : English-PGS

Language                    : English

Default                     : No

Forced                      : No



Text #3

ID                          : 5

Format                      : PGS

Codec ID                    : S_HDMV/PGS

Codec ID/Info               : Picture based subtitle format used on BDs/HD-DVDs

Duration                    : 1 h 56 min

Bit rate                    : 43.8 kb/s

Count of elements           : 3720

Stream size                 : 36.5 MiB (0%)

Title                       : English-SDH-PGS

Language                    : English

Default                     : No

Forced                      : No



Text #4

ID                          : 6

Format                      : PGS

Codec ID                    : S_HDMV/PGS

Codec ID/Info               : Picture based subtitle format used on BDs/HD-DVDs

Duration                    : 1 h 56 min

Bit rate                    : 28.1 kb/s

Count of elements           : 2874

Stream size                 : 23.5 MiB (0%)

Title                       : French_PGS

Language                    : French

Default                     : No

Forced                      : No



Text #5

ID                          : 7

Format                      : PGS

Codec ID                    : S_HDMV/PGS

Codec ID/Info               : Picture based subtitle format used on BDs/HD-DVDs

Duration                    : 1 h 56 min

Bit rate                    : 31.2 kb/s

Count of elements           : 2762

Stream size                 : 26.1 MiB (0%)

Title                       : Spanish-PGS

Language                    : Spanish

Default                     : No

Forced                      : No



Text #6

ID                          : 8

Format                      : PGS

Codec ID                    : S_HDMV/PGS

Codec ID/Info               : Picture based subtitle format used on BDs/HD-DVDs

Duration                    : 1 h 42 min

Bit rate                    : 739 b/s

Count of elements           : 60

Stream size                 : 556 KiB (0%)

Title                       : Spanish-FORCED-PGS

Language                    : Spanish

Default                     : No

Forced                      : No



Text #7

ID                          : 9

Format                      : PGS

Codec ID                    : S_HDMV/PGS

Codec ID/Info               : Picture based subtitle format used on BDs/HD-DVDs

Duration                    : 1 h 56 min

Bit rate                    : 781 b/s

Count of elements           : 130

Stream size                 : 669 KiB (0%)

Title                       : French-PGS

Language                    : French

Default                     : No

Forced                      : No



Text #8

ID                          : 10

Format                      : PGS

Codec ID                    : S_HDMV/PGS

Codec ID/Info               : Picture based subtitle format used on BDs/HD-DVDs

Duration                    : 1 h 42 min

Bit rate                    : 886 b/s

Count of elements           : 72

Stream size                 : 667 KiB (0%)

Title                       : French-FORCED-PGS

Language                    : French

Default                     : No

Forced                      : No



Text #9

ID                          : 11

Format                      : PGS

Codec ID                    : S_HDMV/PGS

Codec ID/Info               : Picture based subtitle format used on BDs/HD-DVDs

Duration                    : 1 h 56 min

Bit rate                    : 80.6 kb/s

Count of elements           : 4611

Stream size                 : 67.3 MiB (1%)

Title                       : English-COMMENTARY-PGS

Language                    : English

Default                     : No

Forced                      : No



Text #10

ID                          : 12

Format                      : PGS

Codec ID                    : S_HDMV/PGS

Codec ID/Info               : Picture based subtitle format used on BDs/HD-DVDs

Duration                    : 1 h 56 min

Bit rate                    : 63.1 kb/s

Count of elements           : 4193

Stream size                 : 52.7 MiB (0%)

Title                       : Spanish-COMMENTARY-PGS

Language                    : Spanish

Default                     : No

Forced                      : No



Menu

00:00:00.000                : :Chapter 01

00:09:03.793                : :Chapter 02

00:14:04.718                : :Chapter 03

00:18:51.713                : :Chapter 04

00:29:39.027                : :Chapter 05

00:34:14.635                : :Chapter 06

00:40:34.432                : :Chapter 07

00:44:22.826                : :Chapter 08

00:48:06.550                : :Chapter 09

00:58:45.855                : :Chapter 10

01:06:04.168                : :Chapter 11

01:09:55.274                : :Chapter 12

01:20:00.003                : :Chapter 13

01:24:54.589                : :Chapter 14

01:33:33.316                : :Chapter 15

01:55:26.753                : :Chapter 16



Source Information

General

Unique ID                   : 174816109977580418847253729244636253946 (0x83845BAC39E06C897212F33318C80EFA)

Complete name               : Spider.Man.Into.The.Spider.Verse.2018.1080p.BluRay.REMUX.AVC.DTS-HD.MA.TrueHD.7.1.Atmos-FGT (1).mkv

Format                      : Matroska

Format version              : Version 4

File size                   : 20.6 GiB

Duration                    : 1 h 56 min

Overall bit rate mode       : Variable

Overall bit rate            : 25.3 Mb/s

Encoded date                : UTC 2020-06-15 09:08:20

Writing application         : mkvmerge v44.0.0 ('Domino') 64-bit

Writing library             : libebml v1.3.10 + libmatroska v1.5.2



Video

ID                          : 1

Format                      : AVC

Format/Info                 : Advanced Video Codec

Format profile              : [email protected]

Format settings             : CABAC / 2 Ref Frames

Format settings, CABAC      : Yes

Format settings, Reference  : 2 frames

Format settings, GOP        : M=1, N=10

Codec ID                    : V_MPEG4/ISO/AVC

Duration                    : 1 h 56 min

Bit rate mode               : Variable

Bit rate                    : 21.8 Mb/s

Width                       : 1 920 pixels

Height                      : 1 080 pixels

Display aspect ratio        : 16:9

Frame rate mode             : Constant

Frame rate                  : 23.976 (24000/1001) FPS

Color space                 : YUV

Chroma subsampling          : 4:2:0

Bit depth                   : 8 bits

Scan type                   : Progressive

Bits/(Pixel*Frame)          : 0.439

Stream size                 : 17.8 GiB (86%)

Title                       : Spider.Man.Into.The.Spider.Verse.2018.1080p.BluRay.REMUX.AVC.DTS-HD.MA.TrueHD.7.1.Atmos-FGT

Language                    : English

Default                     : No

Forced                      : No



Audio

ID                          : 2

Format                      : MLP FBA 16-ch

Format/Info                 : Meridian Lossless Packing FBA with 16-channel presentation

Commercial name             : Dolby TrueHD with Dolby Atmos

Codec ID                    : A_TRUEHD

Duration                    : 1 h 56 min

Bit rate mode               : Variable

Bit rate                    : 3 267 kb/s

Maximum bit rate            : 4 935 kb/s

Channel(s)                  : 8 channels

Channel layout              : L R C LFE Ls Rs Lb Rb

Sampling rate               : 48.0 kHz

Frame rate                  : 1 200.000 FPS (40 SPF)

Compression mode            : Lossless

Delay relative to video     : 8 ms

Stream size                 : 2.67 GiB (13%)

Language                    : English

Default                     : Yes

Forced                      : No

Number of dynamic objects   : 11

Bed channel count           : 1 channel

Bed channel configuration   : LFE



Text #1

ID                          : 3

Format                      : UTF-8

Codec ID                    : S_TEXT/UTF8

Codec ID/Info               : UTF-8 Plain Text

Duration                    : 1 h 55 min

Bit rate                    : 55 b/s

Count of elements           : 1540

Stream size                 : 46.9 KiB (0%)

Title                       : English-SRT

Language                    : English

Default                     : Yes

Forced                      : No



Text #2

ID                          : 4

Format                      : PGS

Muxing mode                 : zlib

Codec ID                    : S_HDMV/PGS

Codec ID/Info               : Picture based subtitle format used on BDs/HD-DVDs

Duration                    : 1 h 56 min

Bit rate                    : 32.3 kb/s

Count of elements           : 2748

Stream size                 : 26.9 MiB (0%)

Title                       : English-PGS

Language                    : English

Default                     : No

Forced                      : No



Text #3

ID                          : 5

Format                      : PGS

Muxing mode                 : zlib

Codec ID                    : S_HDMV/PGS

Codec ID/Info               : Picture based subtitle format used on BDs/HD-DVDs

Duration                    : 1 h 56 min

Bit rate                    : 43.8 kb/s

Count of elements           : 3720

Stream size                 : 36.5 MiB (0%)

Title                       : English-SDH-PGS

Language                    : English

Default                     : No

Forced                      : No



Text #4

ID                          : 6

Format                      : PGS

Muxing mode                 : zlib

Codec ID                    : S_HDMV/PGS

Codec ID/Info               : Picture based subtitle format used on BDs/HD-DVDs

Duration                    : 1 h 56 min

Bit rate                    : 28.1 kb/s

Count of elements           : 2874

Stream size                 : 23.5 MiB (0%)

Title                       : French_PGS

Language                    : French

Default                     : No

Forced                      : No



Text #5

ID                          : 7

Format                      : PGS

Muxing mode                 : zlib

Codec ID                    : S_HDMV/PGS

Codec ID/Info               : Picture based subtitle format used on BDs/HD-DVDs

Duration                    : 1 h 56 min

Bit rate                    : 31.2 kb/s

Count of elements           : 2762

Stream size                 : 26.1 MiB (0%)

Title                       : Spanish-PGS

Language                    : Spanish

Default                     : No

Forced                      : No



Text #6

ID                          : 8

Format                      : PGS

Muxing mode                 : zlib

Codec ID                    : S_HDMV/PGS

Codec ID/Info               : Picture based subtitle format used on BDs/HD-DVDs

Duration                    : 1 h 42 min

Bit rate                    : 739 b/s

Count of elements           : 60

Stream size                 : 556 KiB (0%)

Title                       : Spanish-FORCED-PGS

Language                    : Spanish

Default                     : No

Forced                      : No



Text #7

ID                          : 9

Format                      : PGS

Muxing mode                 : zlib

Codec ID                    : S_HDMV/PGS

Codec ID/Info               : Picture based subtitle format used on BDs/HD-DVDs

Duration                    : 1 h 56 min

Bit rate                    : 781 b/s

Count of elements           : 130

Stream size                 : 669 KiB (0%)

Title                       : French-PGS

Language                    : French

Default                     : No

Forced                      : No



Text #8

ID                          : 10

Format                      : PGS

Muxing mode                 : zlib

Codec ID                    : S_HDMV/PGS

Codec ID/Info               : Picture based subtitle format used on BDs/HD-DVDs

Duration                    : 1 h 42 min

Bit rate                    : 886 b/s

Count of elements           : 72

Stream size                 : 667 KiB (0%)

Title                       : French-FORCED-PGS

Language                    : French

Default                     : No

Forced                      : No



Text #9

ID                          : 11

Format                      : PGS

Muxing mode                 : zlib

Codec ID                    : S_HDMV/PGS

Codec ID/Info               : Picture based subtitle format used on BDs/HD-DVDs

Duration                    : 1 h 56 min

Bit rate                    : 80.6 kb/s

Count of elements           : 4611

Stream size                 : 67.3 MiB (0%)

Title                       : English-COMMENTARY-PGS

Language                    : English

Default                     : No

Forced                      : No



Text #10

ID                          : 12

Format                      : PGS

Muxing mode                 : zlib

Codec ID                    : S_HDMV/PGS

Codec ID/Info               : Picture based subtitle format used on BDs/HD-DVDs

Duration                    : 1 h 56 min

Bit rate                    : 63.1 kb/s

Count of elements           : 4193

Stream size                 : 52.7 MiB (0%)

Title                       : Spanish-COMMENTARY-PGS

Language                    : Spanish

Default                     : No

Forced                      : No



Menu

00:00:00.000                : en:Chapter 01

00:09:03.793                : en:Chapter 02

00:14:04.718                : en:Chapter 03

00:18:51.713                : en:Chapter 04

00:29:39.027                : en:Chapter 05

00:34:14.635                : en:Chapter 06

00:40:34.432                : en:Chapter 07

00:44:22.826                : en:Chapter 08

00:48:06.550                : en:Chapter 09

00:58:45.855                : en:Chapter 10

01:06:04.168                : en:Chapter 11

01:09:55.274                : en:Chapter 12

01:20:00.003                : en:Chapter 13

01:24:54.589                : en:Chapter 14

01:33:33.316                : en:Chapter 15

01:55:26.753                : en:Chapter 16



Hello everyone,

We are TAoE, a small team of passionate encoders who love encoding. We try our best to provide you with high quality releases.



Requests for movies and shows are welcome.

We have a form for encode requests which can be found here

Encode requests form

submit your request and it will be added to our encoding request list

You can view our encoding request list here

Encode requests list





When or if we encode it will depend on if we can obtain a good source to encode with and

if one of the TAoE encoders chooses to encode it. Unfortunately we are not able to encode everything,

new members are welcome as that helps us encode more content!



If you would like to join TAoE submit your request here!

TAoE member applications form









.........................................................................................................................................

Discussion

Comments 0

Post Your Comment

Files in this torrent

FILENAMESIZE
Spider-Man Into the Spider-Verse (2018) (1080p BDRip x265 10bit TrueHD 7.1 Atmos - r0b0t) [TAoE].mkv10.6 GB

Alternative Torrents for 'SpiderMan Into SpiderVerse bit TrueHD Atmos rbt'.

There are no alternative torrents found.