Priyut 2007 BDRip 720p

Torrent Details


Priyut 2007 BDRip 720p

NAME
Priyut 2007 BDRip 720p.torrent
CATEGORY
Movies
INFOHASH
9992c1c2193c8fe17b5e1be5112aa2640d6d6b3c
SIZE
5.4 GB in 1 file
ADDED
Uploaded on 16-06-2020 by our crawler pet called "Spidey".
SWARM
0 seeders & 0 peers
RATING
No votes yet.

Please login to vote for this torrent.


Description

Информация о фильме

Название: Приют

Оригинальное название: El Orfanato / The Orphanage

Год выхода: 2007

Жанр: Мистика, триллер, драма, детектив

Режиссер: Хуан Антонио Байона

В ролях: Белен Руэда, Фернандо Кайо, Роже Принсеп, Мэйбл Ривера, Монтсеррат Карулла, Андрес Гертрудикс, Эдгар Вивар, Оскар Касас, Мирейа Рено, Джорджина Авелланеда Рита, Джеральдин Чаплин



О фильме: Самые счастливые годы Лаура провела в сиротском приюте на побережье. Любимые воспитатели заменили ей родителей, а друзья - братьев и сестер. Через тридцать лет Лаура возвращается в дом своего детства с мужем и семилетним сыном. Она мечтает восстановить его и открыть для новых маленьких посетителей. Однако героиню поразили перемены, произошедшие с ее собственным сыном. Из милого мальчика он превратился в маленького монстра с жестокими фантазиями и опасными играми. Она уверена, что во всем виноват старый дом, таящий скрытую угрозу. Постепенно картины прошлого всплывают в памяти Лауры и открывают ей страшную истину.







Страна: Испания

Студия: Esta Vivo! Laboratorio de Nuevos Talentos, Grupo Rodar, Warner Bros. Pictures de España

Продолжительность: 01:45:48

Перевод: Дублированный, авторский одноголосый



Файл

Качество: BDRip 720p

Формат: Matroska

Видео: MPEG-4 AVC Video, 1280x544 (2.35:1), 5934 kbps, 23.976 fps

Аудио 1: Russian: 48 kHz, AC3, 3/2 (L,C,R,l,r) + LFE ch, 448 kbps - DUB, R5

Аудио 2: Russian: 48 kHz, AC3, 3/2 (L,C,R,l,r) + LFE ch, 448 kbps - AVO, Ю.Немахов

Аудио 3: Spanish: 48 kHz, AC3, 3/2 (L,C,R,l,r) + LFE ch, 448 kbps - Оригинал

Субтитры: Русские (Full), английские



Скриншоты

MediaInfoGeneral

Unique ID : 233743853310711373881428520627863077551 (0xAFD96DBB668B47B5959789A65FF8C2AF)

Complete name : Priyut.2007.BDRip.720p.mkv

Format : Matroska

Format version : Version 4 / Version 2

File size : 5.38 GiB

Duration : 1 h 45 min

Overall bit rate : 7 281 kb/s

Encoded date : UTC 2020-06-16 09:43:16

Writing application : mkvmerge v7.8.0 ('River Man') 32bit built on Apr 3 2015 12:11:22

Writing library : libebml v1.3.1 + libmatroska v1.4.2



Video

ID : 1

Format : AVC

Format/Info : Advanced Video Codec

Format profile : [email protected]

Format settings, CABAC : Yes

Format settings, RefFrames : 12 frames

Codec ID : V_MPEG4/ISO/AVC

Duration : 1 h 45 min

Bit rate : 5 934 kb/s

Width : 1 280 pixels

Height : 544 pixels

Display aspect ratio : 2.35:1

Frame rate mode : Constant

Frame rate : 23.976 (24000/1001) FPS

Color space : YUV

Chroma subsampling : 4:2:0

Bit depth : 8 bits

Scan type : Progressive

Bits/(Pixel*Frame) : 0.355

Stream size : 4.39 GiB (82%)

Writing library : x264 core 148 r2638kMod 7599210

Encoding settings : cabac=1 / ref=12 / deblock=1:-2:-2 / analyse=0x3:0x133 / me=umh / subme=11 / psy=1 / fade_compensate=0.00 / psy_rd=1.00:0.00 / mixed_ref=1 / me_range=32 / chroma_me=1 / trellis=2 / 8x8dct=1 / cqm=0 / deadzone=21,11 / fast_pskip=1 / chroma_qp_offset=-2 / threads=12 / lookahead_threads=2 / sliced_threads=0 / nr=0 / decimate=1 / interlaced=0 / bluray_compat=0 / constrained_intra=0 / fgo=0 / bframes=8 / b_pyramid=2 / b_adapt=2 / b_bias=0 / direct=1 / weightb=1 / open_gop=0 / weightp=2 / keyint=250 / keyint_min=23 / scenecut=40 / intra_refresh=0 / rc_lookahead=60 / rc=crf / mbtree=0 / crf=16.0000 / qcomp=0.70 / qpmin=0 / qpmax=69 / qpstep=4 / vbv_maxrate=62500 / vbv_bufsize=78125 / crf_max=0.0 / nal_hrd=none / filler=0 / ip_ratio=1.40 / pb_ratio=1.30 / aq=1:0.80

Language : Spanish

Default : Yes

Forced : No

Color range : Limited

Color primaries : BT.709

Transfer characteristics : BT.709

Matrix coefficients : BT.709



Audio #1

ID : 2

Format : AC-3

Format/Info : Audio Coding 3

Format settings, Endianness : Big

Codec ID : A_AC3

Duration : 1 h 45 min

Bit rate mode : Constant

Bit rate : 448 kb/s

Channel(s) : 6 channels

Channel positions : Front: L C R, Side: L R, LFE

Sampling rate : 48.0 kHz

Frame rate : 31.250 FPS (1536 SPF)

Bit depth : 16 bits

Compression mode : Lossy

Stream size : 339 MiB (6%)

Title : Дубляж

Language : Russian

Service kind : Complete Main

Default : Yes

Forced : No



Audio #2

ID : 3

Format : AC-3

Format/Info : Audio Coding 3

Format settings, Endianness : Big

Codec ID : A_AC3

Duration : 1 h 45 min

Bit rate mode : Constant

Bit rate : 448 kb/s

Channel(s) : 6 channels

Channel positions : Front: L C R, Side: L R, LFE

Sampling rate : 48.0 kHz

Frame rate : 31.250 FPS (1536 SPF)

Bit depth : 16 bits

Compression mode : Lossy

Stream size : 339 MiB (6%)

Title : Авторский (Немахов)

Language : Russian

Service kind : Complete Main

Default : No

Forced : No



Audio #3

ID : 4

Format : AC-3

Format/Info : Audio Coding 3

Format settings, Endianness : Big

Codec ID : A_AC3

Duration : 1 h 45 min

Bit rate mode : Constant

Bit rate : 448 kb/s

Channel(s) : 6 channels

Channel positions : Front: L C R, Side: L R, LFE

Sampling rate : 48.0 kHz

Frame rate : 31.250 FPS (1536 SPF)

Bit depth : 16 bits

Compression mode : Lossy

Stream size : 339 MiB (6%)

Title : Original

Language : Spanish

Service kind : Complete Main

Default : No

Forced : No



Text #1

ID : 5

Format : UTF-8

Codec ID : S_TEXT/UTF8

Codec ID/Info : UTF-8 Plain Text

Duration : 1 h 39 min

Bit rate : 53 b/s

Count of elements : 766

Stream size : 39.0 KiB (0%)

Title : Полные

Language : Russian

Default : No

Forced : No



Text #2

ID : 6

Format : UTF-8

Codec ID : S_TEXT/UTF8

Codec ID/Info : UTF-8 Plain Text

Duration : 1 h 39 min

Bit rate : 29 b/s

Count of elements : 769

Stream size : 21.5 KiB (0%)

Title : Full

Language : English

Default : No

Forced : No



Menu

00:00:00.000 : en:Chapter 1

00:09:06.253 : en:Chapter 2

00:16:33.241 : en:Chapter 3

00:22:11.203 : en:Chapter 4

00:34:20.016 : en:Chapter 5

00:43:20.097 : en:Chapter 6

00:51:56.362 : en:Chapter 7

01:02:21.278 : en:Chapter 8

01:12:01.692 : en:Chapter 9

01:17:59.381 : en:Chapter 10

01:26:06.327 : en:Chapter 11

01:35:56.582 : en:Chapter 12

Discussion

Comments 0

Post Your Comment

Files in this torrent

FILENAMESIZE
Priyut.2007.BDRip.720p.mkv5.4 GB

Alternative Torrents for 'Priyut'.

TORRENT NAMEADDEDSIZESEEDSPEERSHEALTH
3/16/20211.5 GB10
3/16/20213.7 GB00
6/16/20205.4 GB00
4/18/20191.1 GB00
3/16/20191.1 GB00
3/15/20191.1 GB00