AXONE (2020) [Hindi DD 5.1] 720p HDRip MSubs X264 AAC

Torrent Details


AXONE (2020) [Hindi DD 5.1] 720p HDRip MSubs x264 AAC

NAME
AXONE (2020) [Hindi DD 5.1] 720p HDRip MSubs x264 AAC.torrent
CATEGORY
Movies
INFOHASH
af06bea5929894e2f5624cddec2a581052843ceb
SIZE
856 MB in 1 file
ADDED
Uploaded on 16-06-2020 by our crawler pet called "Spidey".
SWARM
0 seeders & 0 peers
RATING
No votes yet.

Please login to vote for this torrent.


Description

General
Unique ID : 64935690293644208894315714522611417085 (0x30DA28B6D1B24F6C111FAF3BFFE77FFD)
Complete name : AXONE (2020) [Hindi DD5.1] 720p HDRip MSubs x264 AAC.mkv
Format : Matroska
Format version : Version 4
File size : 856 MiB
Duration : 1 h 40 min
Overall bit rate : 1 189 kb/s
Movie name : Latestmovieshub.xyz
Encoded date : UTC 2020-06-13 08:42:03
Writing application : mkvmerge v45.0.0 ('Heaven in Pennies') 32-bit
Writing library : libebml v1.3.10 + libmatroska v1.5.2

Video
ID : 1
Format : AVC
Format/Info : Advanced Video Codec
Format profile : [email protected]
Format settings : CABAC / 4 Ref Frames
Format settings, CABAC : Yes
Format settings, Reference frames : 4 frames
Codec ID : V_MPEG4/ISO/AVC
Duration : 1 h 40 min
Bit rate : 1 000 kb/s
Width : 1 280 pixels
Height : 536 pixels
Display aspect ratio : 2.40:1
Frame rate mode : Constant
Frame rate : 24.000 FPS
Color space : YUV
Chroma subsampling : 4:2:0
Bit depth : 8 bits
Scan type : Progressive
Bits/(Pixel*Frame) : 0.061
Stream size : 715 MiB (84%)
Title : Latestmovieshub.xyz
Writing library : x264 core 157 r2935 545de2f
Encoding settings : cabac=1 / ref=1 / deblock=1:0:0 / analyse=0x3:0x113 / me=hex / subme=2 / psy=1 / psy_rd=1.00:0.00 / mixed_ref=0 / me_range=16 / chroma_me=1 / trellis=0 / 8x8dct=1 / cqm=0 / deadzone=21,11 / fast_pskip=1 / chroma_qp_offset=0 / threads=17 / lookahead_threads=4 / sliced_threads=0 / nr=0 / decimate=1 / interlaced=0 / bluray_compat=0 / constrained_intra=0 / bframes=3 / b_pyramid=2 / b_adapt=1 / b_bias=0 / direct=1 / weightb=1 / open_gop=0 / weightp=1 / keyint=240 / keyint_min=24 / scenecut=40 / intra_refresh=0 / rc_lookahead=10 / rc=abr / mbtree=1 / bitrate=1000 / ratetol=1.0 / qcomp=0.60 / qpmin=0 / qpmax=69 / qpstep=4 / ip_ratio=1.40 / aq=1:1.00
Language : Hindi
Default : Yes
Forced : No

Audio
ID : 2
Format : E-AC-3
Format/Info : Enhanced AC-3
Commercial name : Dolby Digital Plus
Codec ID : A_EAC3
Duration : 1 h 40 min
Bit rate mode : Constant
Bit rate : 192 kb/s
Channel(s) : 6 channels
Channel layout : L R C LFE Ls Rs
Sampling rate : 48.0 kHz
Frame rate : 31.250 FPS (1536 SPF)
Compression mode : Lossy
Stream size : 138 MiB (16%)
Title : Latestmovieshub.xyz
Language : Hindi
Service kind : Complete Main
Default : Yes
Forced : No

Text #1
ID : 3
Format : UTF-8
Codec ID : S_TEXT/UTF8
Codec ID/Info : UTF-8 Plain Text
Duration : 1 h 37 min
Bit rate : 39 b/s
Count of elements : 882
Stream size : 28.2 KiB (0%)
Title : Latestmovieshub.xyz
Language : English
Default : Yes
Forced : No

Text #2
ID : 4
Format : UTF-8
Codec ID : S_TEXT/UTF8
Codec ID/Info : UTF-8 Plain Text
Duration : 1 h 37 min
Bit rate : 90 b/s
Count of elements : 1276
Stream size : 64.8 KiB (0%)
Title : Arabic
Language : Arabic
Default : No
Forced : No

Text #3
ID : 5
Format : UTF-8
Codec ID : S_TEXT/UTF8
Codec ID/Info : UTF-8 Plain Text
Duration : 1 h 38 min
Bit rate : 55 b/s
Count of elements : 1461
Stream size : 40.2 KiB (0%)
Title : Chinese Simplified
Language : Chinese
Default : No
Forced : No

Text #4
ID : 6
Format : UTF-8
Codec ID : S_TEXT/UTF8
Codec ID/Info : UTF-8 Plain Text
Duration : 1 h 38 min
Bit rate : 55 b/s
Count of elements : 1459
Stream size : 40.1 KiB (0%)
Title : Chinese Traditional
Language : Chinese
Default : No
Forced : No

Text #5
ID : 7
Format : UTF-8
Codec ID : S_TEXT/UTF8
Codec ID/Info : UTF-8 Plain Text
Duration : 1 h 39 min
Bit rate : 59 b/s
Count of elements : 1200
Stream size : 43.3 KiB (0%)
Title : Dutch
Language : Dutch
Default : No
Forced : No

Text #6
ID : 8
Format : UTF-8
Codec ID : S_TEXT/UTF8
Codec ID/Info : UTF-8 Plain Text
Duration : 1 h 39 min
Bit rate : 61 b/s
Count of elements : 1228
Stream size : 44.9 KiB (0%)
Title : French
Language : French
Default : No
Forced : No

Text #7
ID : 9
Format : UTF-8
Codec ID : S_TEXT/UTF8
Codec ID/Info : UTF-8 Plain Text
Duration : 1 h 39 min
Bit rate : 62 b/s
Count of elements : 1264
Stream size : 45.4 KiB (0%)
Title : German
Language : German
Default : No
Forced : No

Text #8
ID : 10
Format : UTF-8
Codec ID : S_TEXT/UTF8
Codec ID/Info : UTF-8 Plain Text
Duration : 1 h 39 min
Bit rate : 198 b/s
Count of elements : 1590
Stream size : 145 KiB (0%)
Title : Hindi
Language : Hindi
Default : No
Forced : No

Text #9
ID : 11
Format : UTF-8
Codec ID : S_TEXT/UTF8
Codec ID/Info : UTF-8 Plain Text
Duration : 1 h 38 min
Bit rate : 60 b/s
Count of elements : 633
Stream size : 43.5 KiB (0%)
Title : Hindi - [Forced]
Language : Hindi
Default : No
Forced : Yes

Text #10
ID : 12
Format : UTF-8
Codec ID : S_TEXT/UTF8
Codec ID/Info : UTF-8 Plain Text
Duration : 1 h 38 min
Bit rate : 50 b/s
Count of elements : 1460
Stream size : 36.9 KiB (0%)
Title : Indonesian
Language : Indonesian
Default : No
Forced : No

Text #11
ID : 13
Format : UTF-8
Codec ID : S_TEXT/UTF8
Codec ID/Info : UTF-8 Plain Text
Duration : 1 h 39 min
Bit rate : 59 b/s
Count of elements : 1265
Stream size : 42.9 KiB (0%)
Title : Italian
Language : Italian
Default : No
Forced : No

Text #12
ID : 14
Format : UTF-8
Codec ID : S_TEXT/UTF8
Codec ID/Info : UTF-8 Plain Text
Duration : 1 h 38 min
Bit rate : 63 b/s
Count of elements : 1413
Stream size : 46.0 KiB (0%)
Title : Brazilian Portuguese
Language : Portuguese
Default : No
Forced : No

Text #13
ID : 15
Format : UTF-8
Codec ID : S_TEXT/UTF8
Codec ID/Info : UTF-8 Plain Text
Duration : 1 h 39 min
Bit rate : 63 b/s
Count of elements : 1265
Stream size : 46.1 KiB (0%)
Title : Spanish
Language : Spanish
Default : No
Forced : No

Text #14
ID : 16
Format : UTF-8
Codec ID : S_TEXT/UTF8
Codec ID/Info : UTF-8 Plain Text
Duration : 1 h 38 min
Bit rate : 131 b/s
Count of elements : 1460
Stream size : 95.2 KiB (0%)
Title : Thai
Language : Thai
Default : No
Forced : No

Text #15
ID : 17
Format : UTF-8
Codec ID : S_TEXT/UTF8
Codec ID/Info : UTF-8 Plain Text
Duration : 1 h 39 min
Bit rate : 53 b/s
Count of elements : 1263
Stream size : 39.1 KiB (0%)
Title : Turkish
Language : Turkish
Default : No
Forced : No




Discussion

Comments 0

Post Your Comment

Files in this torrent

FILENAMESIZE
AXONE (2020) [Hindi DD5.1] 720p HDRip MSubs x264 AAC.mkv856.5 MB

Alternative Torrents for 'AXONE Hindi DD . MSubs AAC'.

There are no alternative torrents found.