Gemini Man 2019 X264 720p Esub BluRay Dual Audio English Hindi Telugu Tamil GOPI SAHI

Torrent Details


Gemini Man 2019 x264 720p Esub BluRay Dual Audio English Hindi Telugu Tamil GOPI SAHI

NAME
Gemini Man 2019 x264 720p Esub BluRay Dual Audio English Hindi Telugu Tamil GOPI SAHI.torrent
CATEGORY
Movies
INFOHASH
200b9c85324be1ef95f165ac057b3210830e8bde
SIZE
1.1 GB in 2 files
ADDED
Uploaded on 16-06-2020 by our crawler pet called "Spidey".
SWARM
1 seeders & 0 peers
RATING
No votes yet.

Please login to vote for this torrent.


Description

https://www.gopisahi.life/



Format : Matroska

Format version : Version 4

File size : 1.05 GiB

Duration : 1 h 57 min

Overall bit rate : 1 289 kb/s

Movie name : Gemini Man 2019 GOPI SAHI

Encoded date : UTC 2020-06-14 06:26:01


Video

ID : 1

Format : AVC

Format/Info : Advanced Video Codec

Format profile : [email protected]

Format settings : CABAC / 5 Ref Frames

Format settings, CABAC : Yes

Format settings, Reference fra : 5 frames

Codec ID : V_MPEG4/ISO/AVC

Duration : 1 h 57 min

Bit rate : 899 kb/s

Width : 1 280 pixels

Height : 690 pixels

Display aspect ratio : 1.85:1

Frame rate mode : Constant

Frame rate : 23.976 (24000/1001) FPS

Color space : YUV

Chroma subsampling : 4:2:0

Bit depth : 8 bits

Scan type : Progressive

Bits/(Pixel*Frame) : 0.042

Stream size : 752 MiB (70%)

Title : GOPI SAHI

Writing library : x264 core 157 r2935 545de2f


Audio #1

ID : 2

Format : AAC LC

Format/Info : Advanced Audio Codec Low Complexity

Codec ID : A_AAC-2

Duration : 1 h 57 min

Bit rate : 96.0 kb/s

Channel(s) : 2 channels

Channel layout : L R

Sampling rate : 48.0 kHz

Frame rate : 46.875 FPS (1024 SPF)

Compression mode : Lossy

Delay relative to video : -64 ms

Stream size : 80.7 MiB (7%)

Title : GOPI SAHI

Language : Hindi


Audio #2

Format : AAC LC

Duration : 1 h 57 min

Bit rate : 96.0 kb/s

Channel(s) : 2 channels

Channel layout : L R

Sampling rate : 48.0 kHz

Frame rate : 46.875 FPS (1024 SPF)

Compression mode : Lossy

Delay relative to video : -64 ms

Stream size : 80.8 MiB (7%)

Title : GOPI SAHI

Language : English


Audio #3

Format : AAC LC

Duration : 1 h 57 min

Bit rate : 96.0 kb/s

Channel(s) : 2 channels

Channel layout : L R

Sampling rate : 48.0 kHz

Frame rate : 46.875 FPS (1024 SPF)

Compression mode : Lossy

Delay relative to video : -64 ms

Stream size : 80.7 MiB (7%)

Title : GOPI SAHI

Language : Tamil


Audio #4

Format : AAC LC

Duration : 1 h 57 min

Bit rate : 96.0 kb/s

Channel(s) : 2 channels

Channel layout : L R

Sampling rate : 48.0 kHz

Frame rate : 46.875 FPS (1024 SPF)

Compression mode : Lossy

Delay relative to video : -64 ms

Stream size : 80.7 MiB (7%)

Title : GOPI SAHI

Language : Telugu

Default : No

Forced : No


Text

Language : English





Discussion

Comments 0

Post Your Comment

Files in this torrent

FILENAMESIZE
Encooded And Uploded From.txt50 B
Gemini Man 2019 GOPI SAHI.mkv1.1 GB

Alternative Torrents for 'Gemini Man Esub BluRay Dual Audio English Hindi Telugu Tamil GOPI SAHI'.

TORRENT NAMEADDEDSIZESEEDSPEERSHEALTH
6/16/20201.1 GB10