Blood Diamond (2006) (1080p BDRip X265 10bit EAC3 5.1 - Xtrem3x)[TAoE]

Torrent Details

Blood Diamond (2006) (1080p BDRip x265 10bit EAC3 5.1 - xtrem3x)<span style=color:#fc9c6d>[TAoE]</span>

NAME
Blood Diamond (2006) (1080p BDRip x265 10bit EAC3 5.1 - xtrem3x)[TAoE].torrent
CATEGORY
Movies
INFOHASH
41768db4225c1bdc60950c19c45197e813319a97
SIZE
9.4 GB in 1 file
ADDED
Uploaded on 16-06-2020 by our crawler pet called "Spidey".
SWARM
1 seeders & 0 peers
RATING
No votes yet.

Please login to vote for this torrent.


Description









Blood Diamond (2006) IMDB





















Media Information



General

Unique ID                                : 259142166038677869479875562861558974274 (0xC2F4F73AEA4FF71D6CA306B23BFB4742)

Complete name                            : Blood Diamond (2006) (1080p BDRip x265 10bit EAC3 5.1 - xtrem3x)[TAoE].mkv

Format                                   : Matroska

Format version                           : Version 4

File size                                : 9.42 GiB

Duration                                 : 2 h 23 min

Overall bit rate                         : 9 411 kb/s

Writing application                      : Lavf58.29.100

Writing library                          : Lavf58.29.100

ErrorDetectionType                       : Per level 1



Video

ID                                       : 1

Format                                   : HEVC

Format/Info                              : High Efficiency Video Coding

Format profile                           : Main [email protected]@Main

Codec ID                                 : V_MPEGH/ISO/HEVC

Duration                                 : 2 h 23 min

Bit rate                                 : 7 848 kb/s

Width                                    : 1 920 pixels

Height                                   : 1 080 pixels

Display aspect ratio                     : 16:9

Frame rate mode                          : Constant

Frame rate                               : 23.976 (24000/1001) FPS

Color space                              : YUV

Chroma subsampling                       : 4:2:0

Bit depth                                : 10 bits

Bits/(Pixel*Frame)                       : 0.158

Stream size                              : 7.86 GiB (83%)

Title                                    : Encoded by xtrem3x for TAoE using Shinguru V1.2

Writing library                          : x265 3.2+35-acc5d16999e2:[Windows][GCC 9.2.1][64 bit] 10bit

Encoding settings                        : cpuid=1111039 / frame-threads=3 / numa-pools=12 / wpp / no-pmode / no-pme / no-psnr / no-ssim / log-level=2 / input-csp=1 / input-res=1920x1080 / interlace=0 / total-frames=0 / level-idc=0 / high-tier=1 / uhd-bd=0 / ref=4 / no-allow-non-conformance / no-repeat-headers / annexb / no-aud / no-hrd / info / hash=0 / no-temporal-layers / open-gop / min-keyint=23 / keyint=250 / gop-lookahead=0 / bframes=8 / b-adapt=2 / b-pyramid / bframe-bias=0 / rc-lookahead=80 / lookahead-slices=4 / scenecut=40 / hist-scenecut=0 / radl=0 / no-splice / no-intra-refresh / ctu=64 / min-cu-size=8 / no-rect / no-amp / max-tu-size=32 / tu-inter-depth=1 / tu-intra-depth=1 / limit-tu=0 / rdoq-level=2 / dynamic-rd=0.00 / no-ssim-rd / signhide / no-tskip / nr-intra=0 / nr-inter=0 / no-constrained-intra / no-strong-intra-smoothing / max-merge=3 / limit-refs=3 / limit-modes / me=3 / subme=5 / merange=57 / temporal-mvp / no-frame-dup / no-hme / weightp / no-weightb / no-analyze-src-pics / deblock=0:0 / sao / no-sao-non-deblock / rd=4 / selective-sao=4 / no-early-skip / rskip / no-fast-intra / no-tskip-fast / no-cu-lossless / no-b-intra / no-splitrd-skip / rdpenalty=0 / psy-rd=1.30 / psy-rdoq=2.00 / no-rd-refine / no-lossless / cbqpoffs=0 / crqpoffs=0 / rc=crf / crf=18.0 / qcomp=0.60 / qpstep=4 / stats-write=0 / stats-read=0 / ipratio=1.40 / pbratio=1.30 / aq-mode=4 / aq-strength=1.10 / cutree / zone-count=0 / no-strict-cbr / qg-size=32 / no-rc-grain / qpmax=69 / qpmin=0 / no-const-vbv / sar=1 / overscan=0 / videoformat=5 / range=0 / colorprim=2 / transfer=2 / colormatrix=2 / chromaloc=0 / display-window=0 / cll=0,0 / min-luma=0 / max-luma=1023 / log2-max-poc-lsb=8 / vui-timing-info / vui-hrd-info / slices=1 / no-opt-qp-pps / no-opt-ref-list-length-pps / no-multi-pass-opt-rps / scenecut-bias=0.05 / hist-threshold=0.01 / no-opt-cu-delta-qp / no-aq-motion / no-hdr10 / no-hdr10-opt / no-dhdr10-opt / no-idr-recovery-sei / analysis-reuse-level=0 / analysis-save-reuse-level=0 / analysis-load-reuse-level=0 / scale-factor=0 / refine-intra=0 / refine-inter=0 / refine-mv=1 / refine-ctu-distortion=0 / no-limit-sao / ctu-info=0 / no-lowpass-dct / refine-analysis-type=0 / copy-pic=1 / max-ausize-factor=1.0 / no-dynamic-refine / no-single-sei / no-hevc-aq / no-svt / no-field / qp-adaptation-range=1.00 / no-scenecut-aware-qpconformance-window-offsets / right=0 / bottom=0

Default                                  : Yes

Forced                                   : No

Color range                              : Limited



Audio #1

ID                                       : 2

Format                                   : E-AC-3

Format/Info                              : Enhanced AC-3

Commercial name                          : Dolby Digital Plus

Codec ID                                 : A_EAC3

Duration                                 : 2 h 23 min

Bit rate mode                            : Constant

Bit rate                                 : 448 kb/s

Channel(s)                               : 6 channels

Channel layout                           : L R C LFE Ls Rs

Sampling rate                            : 48.0 kHz

Frame rate                               : 31.250 FPS (1536 SPF)

Bit depth                                : 16 bits

Compression mode                         : Lossy

Delay relative to video                  : -42 ms

Stream size                              : 459 MiB (5%)

Writing library                          : Lavc58.54.100 eac3

Language                                 : English

Service kind                             : Complete Main

Default                                  : Yes

Forced                                   : No



Audio #2

ID                                       : 3

Format                                   : E-AC-3

Format/Info                              : Enhanced AC-3

Commercial name                          : Dolby Digital Plus

Codec ID                                 : A_EAC3

Duration                                 : 2 h 23 min

Bit rate mode                            : Constant

Bit rate                                 : 192 kb/s

Channel(s)                               : 2 channels

Channel layout                           : L R

Sampling rate                            : 48.0 kHz

Frame rate                               : 31.250 FPS (1536 SPF)

Bit depth                                : 32 bits

Compression mode                         : Lossy

Delay relative to video                  : -42 ms

Stream size                              : 197 MiB (2%)

Title                                    : Commentary by Director Edward Zwick

Writing library                          : Lavc58.54.100 eac3

Language                                 : English

Service kind                             : Complete Main

Default                                  : No

Forced                                   : No



Text #1

ID                                       : 4

Format                                   : PGS

Codec ID                                 : S_HDMV/PGS

Codec ID/Info                            : Picture based subtitle format used on BDs/HD-DVDs

Duration                                 : 2 h 12 min

Bit rate                                 : 1 795 b/s

Count of elements                        : 112

Stream size                              : 1.70 MiB (0%)

Title                                    : English (Forced)

Language                                 : English

Default                                  : No

Forced                                   : Yes



Text #2

ID                                       : 5

Format                                   : PGS

Codec ID                                 : S_HDMV/PGS

Codec ID/Info                            : Picture based subtitle format used on BDs/HD-DVDs

Duration                                 : 2 h 22 min

Bit rate                                 : 45.8 kb/s

Count of elements                        : 2764

Stream size                              : 46.6 MiB (0%)

Title                                    : English

Language                                 : English

Default                                  : No

Forced                                   : No



Text #3

ID                                       : 6

Format                                   : PGS

Codec ID                                 : S_HDMV/PGS

Codec ID/Info                            : Picture based subtitle format used on BDs/HD-DVDs

Duration                                 : 2 h 22 min

Bit rate                                 : 31.2 kb/s

Count of elements                        : 3622

Stream size                              : 31.8 MiB (0%)

Title                                    : English (SDH)

Language                                 : English

Default                                  : No

Forced                                   : No



Text #4

ID                                       : 7

Format                                   : PGS

Codec ID                                 : S_HDMV/PGS

Codec ID/Info                            : Picture based subtitle format used on BDs/HD-DVDs

Duration                                 : 2 h 22 min

Bit rate                                 : 13.9 kb/s

Count of elements                        : 2908

Stream size                              : 14.2 MiB (0%)

Title                                    : Arabic

Language                                 : Arabic

Default                                  : No

Forced                                   : No



Text #5

ID                                       : 8

Format                                   : PGS

Codec ID                                 : S_HDMV/PGS

Codec ID/Info                            : Picture based subtitle format used on BDs/HD-DVDs

Duration                                 : 2 h 22 min

Bit rate                                 : 19.6 kb/s

Count of elements                        : 2318

Stream size                              : 20.0 MiB (0%)

Title                                    : Bulgarian

Language                                 : Bulgarian

Default                                  : No

Forced                                   : No



Text #6

ID                                       : 9

Format                                   : PGS

Codec ID                                 : S_HDMV/PGS

Codec ID/Info                            : Picture based subtitle format used on BDs/HD-DVDs

Duration                                 : 2 h 22 min

Bit rate                                 : 22.2 kb/s

Count of elements                        : 2888

Stream size                              : 22.6 MiB (0%)

Title                                    : Croatian

Language                                 : Croatian

Default                                  : No

Forced                                   : No



Text #7

ID                                       : 10

Format                                   : PGS

Codec ID                                 : S_HDMV/PGS

Codec ID/Info                            : Picture based subtitle format used on BDs/HD-DVDs

Duration                                 : 2 h 22 min

Bit rate                                 : 21.2 kb/s

Count of elements                        : 2314

Stream size                              : 21.7 MiB (0%)

Title                                    : Czech

Language                                 : Czech

Default                                  : No

Forced                                   : No



Text #8

ID                                       : 11

Format                                   : PGS

Codec ID                                 : S_HDMV/PGS

Codec ID/Info                            : Picture based subtitle format used on BDs/HD-DVDs

Duration                                 : 2 h 22 min

Bit rate                                 : 36.4 kb/s

Count of elements                        : 1983

Stream size                              : 37.1 MiB (0%)

Title                                    : Danish

Language                                 : Danish

Default                                  : No

Forced                                   : No



Text #9

ID                                       : 12

Format                                   : PGS

Codec ID                                 : S_HDMV/PGS

Codec ID/Info                            : Picture based subtitle format used on BDs/HD-DVDs

Duration                                 : 2 h 22 min

Bit rate                                 : 34.3 kb/s

Count of elements                        : 2136

Stream size                              : 35.0 MiB (0%)

Title                                    : Dutch

Language                                 : Dutch

Default                                  : No

Forced                                   : No



Text #10

ID                                       : 13

Format                                   : PGS

Codec ID                                 : S_HDMV/PGS

Codec ID/Info                            : Picture based subtitle format used on BDs/HD-DVDs

Duration                                 : 2 h 22 min

Bit rate                                 : 20.3 kb/s

Count of elements                        : 2180

Stream size                              : 20.8 MiB (0%)

Title                                    : Estonian

Language                                 : Estonian

Default                                  : No

Forced                                   : No



Text #11

ID                                       : 14

Format                                   : PGS

Codec ID                                 : S_HDMV/PGS

Codec ID/Info                            : Picture based subtitle format used on BDs/HD-DVDs

Duration                                 : 2 h 22 min

Bit rate                                 : 36.8 kb/s

Count of elements                        : 2196

Stream size                              : 37.5 MiB (0%)

Title                                    : Finnish

Language                                 : Finnish

Default                                  : No

Forced                                   : No



Text #12

ID                                       : 15

Format                                   : PGS

Codec ID                                 : S_HDMV/PGS

Codec ID/Info                            : Picture based subtitle format used on BDs/HD-DVDs

Duration                                 : 2 h 22 min

Bit rate                                 : 43.4 kb/s

Count of elements                        : 2736

Stream size                              : 44.3 MiB (0%)

Title                                    : French

Language                                 : French

Default                                  : No

Forced                                   : No



Text #13

ID                                       : 16

Format                                   : PGS

Codec ID                                 : S_HDMV/PGS

Codec ID/Info                            : Picture based subtitle format used on BDs/HD-DVDs

Duration                                 : 2 h 22 min

Bit rate                                 : 54.2 kb/s

Count of elements                        : 2998

Stream size                              : 55.2 MiB (1%)

Title                                    : German

Language                                 : German

Default                                  : No

Forced                                   : No



Text #14

ID                                       : 17

Format                                   : PGS

Codec ID                                 : S_HDMV/PGS

Codec ID/Info                            : Picture based subtitle format used on BDs/HD-DVDs

Duration                                 : 2 h 22 min

Bit rate                                 : 37.1 kb/s

Count of elements                        : 3722

Stream size                              : 37.8 MiB (0%)

Title                                    : German (SDH)

Language                                 : German

Default                                  : No

Forced                                   : No



Text #15

ID                                       : 18

Format                                   : PGS

Codec ID                                 : S_HDMV/PGS

Codec ID/Info                            : Picture based subtitle format used on BDs/HD-DVDs

Duration                                 : 2 h 22 min

Bit rate                                 : 23.9 kb/s

Count of elements                        : 2804

Stream size                              : 24.4 MiB (0%)

Title                                    : Greek

Language                                 : Greek

Default                                  : No

Forced                                   : No



Text #16

ID                                       : 19

Format                                   : PGS

Codec ID                                 : S_HDMV/PGS

Codec ID/Info                            : Picture based subtitle format used on BDs/HD-DVDs

Duration                                 : 2 h 22 min

Bit rate                                 : 17.0 kb/s

Count of elements                        : 2908

Stream size                              : 17.3 MiB (0%)

Title                                    : Hebrew

Language                                 : Hebrew

Default                                  : No

Forced                                   : No



Text #17

ID                                       : 20

Format                                   : PGS

Codec ID                                 : S_HDMV/PGS

Codec ID/Info                            : Picture based subtitle format used on BDs/HD-DVDs

Duration                                 : 2 h 22 min

Bit rate                                 : 21.8 kb/s

Count of elements                        : 2430

Stream size                              : 22.2 MiB (0%)

Title                                    : Hungarian

Language                                 : Hungarian

Default                                  : No

Forced                                   : No



Text #18

ID                                       : 21

Format                                   : PGS

Codec ID                                 : S_HDMV/PGS

Codec ID/Info                            : Picture based subtitle format used on BDs/HD-DVDs

Duration                                 : 2 h 22 min

Bit rate                                 : 27.9 kb/s

Count of elements                        : 2908

Stream size                              : 28.4 MiB (0%)

Title                                    : Italian

Language                                 : Italian

Default                                  : No

Forced                                   : No



Text #19

ID                                       : 22

Format                                   : PGS

Codec ID                                 : S_HDMV/PGS

Codec ID/Info                            : Picture based subtitle format used on BDs/HD-DVDs

Duration                                 : 2 h 22 min

Bit rate                                 : 33.4 kb/s

Count of elements                        : 3654

Stream size                              : 34.0 MiB (0%)

Title                                    : Italian (SDH)

Language                                 : Italian

Default                                  : No

Forced                                   : No



Text #20

ID                                       : 23

Format                                   : PGS

Codec ID                                 : S_HDMV/PGS

Codec ID/Info                            : Picture based subtitle format used on BDs/HD-DVDs

Duration                                 : 2 h 22 min

Bit rate                                 : 18.7 kb/s

Count of elements                        : 2192

Stream size                              : 19.1 MiB (0%)

Title                                    : Latvian

Language                                 : Latvian

Default                                  : No

Forced                                   : No



Text #21

ID                                       : 24

Format                                   : PGS

Codec ID                                 : S_HDMV/PGS

Codec ID/Info                            : Picture based subtitle format used on BDs/HD-DVDs

Duration                                 : 2 h 22 min

Bit rate                                 : 23.4 kb/s

Count of elements                        : 2832

Stream size                              : 23.9 MiB (0%)

Title                                    : Lithuanian

Language                                 : Lithuanian

Default                                  : No

Forced                                   : No



Text #22

ID                                       : 25

Format                                   : PGS

Codec ID                                 : S_HDMV/PGS

Codec ID/Info                            : Picture based subtitle format used on BDs/HD-DVDs

Duration                                 : 2 h 22 min

Bit rate                                 : 21.7 kb/s

Count of elements                        : 2158

Stream size                              : 22.2 MiB (0%)

Title                                    : Norwegian

Language                                 : Norwegian

Default                                  : No

Forced                                   : No



Text #23

ID                                       : 26

Format                                   : PGS

Codec ID                                 : S_HDMV/PGS

Codec ID/Info                            : Picture based subtitle format used on BDs/HD-DVDs

Duration                                 : 2 h 22 min

Bit rate                                 : 23.0 kb/s

Count of elements                        : 2644

Stream size                              : 23.4 MiB (0%)

Title                                    : Polish

Language                                 : Polish

Default                                  : No

Forced                                   : No



Text #24

ID                                       : 27

Format                                   : PGS

Codec ID                                 : S_HDMV/PGS

Codec ID/Info                            : Picture based subtitle format used on BDs/HD-DVDs

Duration                                 : 2 h 22 min

Bit rate                                 : 45.2 kb/s

Count of elements                        : 2912

Stream size                              : 46.1 MiB (0%)

Title                                    : Portuguese

Language                                 : Portuguese

Default                                  : No

Forced                                   : No



Text #25

ID                                       : 28

Format                                   : PGS

Codec ID                                 : S_HDMV/PGS

Codec ID/Info                            : Picture based subtitle format used on BDs/HD-DVDs

Duration                                 : 2 h 22 min

Bit rate                                 : 23.5 kb/s

Count of elements                        : 2790

Stream size                              : 23.9 MiB (0%)

Title                                    : Romanian

Language                                 : Romanian

Default                                  : No

Forced                                   : No



Text #26

ID                                       : 29

Format                                   : PGS

Codec ID                                 : S_HDMV/PGS

Codec ID/Info                            : Picture based subtitle format used on BDs/HD-DVDs

Duration                                 : 2 h 22 min

Bit rate                                 : 26.2 kb/s

Count of elements                        : 2934

Stream size                              : 26.7 MiB (0%)

Title                                    : Russian

Language                                 : Russian

Default                                  : No

Forced                                   : No



Text #27

ID                                       : 30

Format                                   : PGS

Codec ID                                 : S_HDMV/PGS

Codec ID/Info                            : Picture based subtitle format used on BDs/HD-DVDs

Duration                                 : 2 h 22 min

Bit rate                                 : 21.3 kb/s

Count of elements                        : 2818

Stream size                              : 21.7 MiB (0%)

Title                                    : Serbian

Language                                 : Serbian

Default                                  : No

Forced                                   : No



Text #28

ID                                       : 31

Format                                   : PGS

Codec ID                                 : S_HDMV/PGS

Codec ID/Info                            : Picture based subtitle format used on BDs/HD-DVDs

Duration                                 : 2 h 22 min

Bit rate                                 : 41.9 kb/s

Count of elements                        : 2738

Stream size                              : 42.7 MiB (0%)

Title                                    : Spanish (Castilian)

Language                                 : Spanish

Default                                  : No

Forced                                   : No



Text #29

ID                                       : 32

Format                                   : PGS

Codec ID                                 : S_HDMV/PGS

Codec ID/Info                            : Picture based subtitle format used on BDs/HD-DVDs

Duration                                 : 2 h 22 min

Bit rate                                 : 49.6 kb/s

Count of elements                        : 2926

Stream size                              : 50.7 MiB (1%)

Title                                    : Spanish (Latin American)

Language                                 : Spanish

Default                                  : No

Forced                                   : No



Text #30

ID                                       : 33

Format                                   : PGS

Codec ID                                 : S_HDMV/PGS

Codec ID/Info                            : Picture based subtitle format used on BDs/HD-DVDs

Duration                                 : 2 h 22 min

Bit rate                                 : 34.5 kb/s

Count of elements                        : 2018

Stream size                              : 35.2 MiB (0%)

Title                                    : Swedish

Language                                 : Swedish

Default                                  : No

Forced                                   : No



Text #31

ID                                       : 34

Format                                   : PGS

Codec ID                                 : S_HDMV/PGS

Codec ID/Info                            : Picture based subtitle format used on BDs/HD-DVDs

Duration                                 : 2 h 22 min

Bit rate                                 : 26.3 kb/s

Count of elements                        : 2906

Stream size                              : 26.8 MiB (0%)

Title                                    : Turkish

Language                                 : Turkish

Default                                  : No

Forced                                   : No



Text #32

ID                                       : 35

Format                                   : PGS

Codec ID                                 : S_HDMV/PGS

Codec ID/Info                            : Picture based subtitle format used on BDs/HD-DVDs

Duration                                 : 2 h 22 min

Bit rate                                 : 23.2 kb/s

Count of elements                        : 2916

Stream size                              : 23.7 MiB (0%)

Title                                    : Ukrainian

Language                                 : Ukrainian

Default                                  : No

Forced                                   : No



Menu

00:00:00.000                             : :Caught in Revolution's Net

00:06:32.559                             : :Conflict Zone Statistics

00:08:57.537                             : :Danny Negotiates

00:14:38.211                             : :Give It to Me

00:18:05.251                             : :Hidden Stones

00:21:56.482                             : :Meeting Maddy

00:27:35.988                             : :Soldiers and Captives

00:30:43.175                             : :Colored By Blood

00:34:48.086                             : :Soldier of the Revolution

00:37:43.761                             : :Get Over Yourself

00:41:20.812                             : :Freetown Siege

00:47:08.659                             : :Shooting to Kill

00:50:19.683                             : :Using Each Other

00:53:58.235                             : :Unhappy Reunion

00:57:38.622                             : :His Only Chance

01:04:04.007                             : :A Little Bang-Bang

01:08:51.461                             : :Drive to Survive

01:11:17.773                             : :Good Intentions

01:16:19.909                             : :Painful History

01:21:18.540                             : :Child Soldier's Target

01:24:27.229                             : :Parting Company

01:29:51.720                             : :After Skinning

01:34:16.985                             : :The Master

01:37:39.187                             : :Searching for Dia

01:43:13.020                             : :A Father Forsaken

01:46:02.856                             : :Kill Them All

01:50:56.984                             : :Deadly Digsite

01:56:07.794                             : :I Am Your Father

01:59:04.471                             : :Take Your Boy Home

02:04:21.454                             : :A Real Story Now

02:08:59.065                             : :Solomon Negotiates

02:12:07.753                             : :Third World's Voice; Coda

02:14:56.922                             : :End Credits





Source Information



General

Unique ID                                : 225312497512036201337895000485509722711 (0xA9819BCBEB52A106A0CA914F26DFF257)

Complete name                            : Blood.Diamond.2006.BluRay.1080p.DTS-HD.MA.5.1.VC-1.REMUX-FraMeSToR.mkv

Format                                   : Matroska

Format version                           : Version 4

File size                                : 16.1 GiB

Duration                                 : 2 h 23 min

Overall bit rate mode                    : Variable

Overall bit rate                         : 16.1 Mb/s

Encoded date                             : UTC 2017-11-21 22:44:27

Writing application                      : mkvmerge v18.0.0 ('Apricity') 64-bit

Writing library                          : libebml v1.3.5 + libmatroska v1.4.8



Video

ID                                       : 1

Format                                   : VC-1

Format profile                           : [email protected]

Codec ID                                 : V_MS/VFW/FOURCC / WVC1

Codec ID/Hint                            : Microsoft

Duration                                 : 2 h 23 min

Bit rate                                 : 12.7 Mb/s

Width                                    : 1 920 pixels

Height                                   : 1 080 pixels

Display aspect ratio                     : 16:9

Frame rate mode                          : Constant

Frame rate                               : 23.976 (24000/1001) FPS

Color space                              : YUV

Chroma subsampling                       : 4:2:0

Bit depth                                : 8 bits

Scan type                                : Progressive

Compression mode                         : Lossy

Bits/(Pixel*Frame)                       : 0.255

Stream size                              : 12.7 GiB (79%)

Default                                  : Yes

Forced                                   : No



Audio #1

ID                                       : 2

Format                                   : DTS XLL

Format/Info                              : Digital Theater Systems

Commercial name                          : DTS-HD Master Audio

Codec ID                                 : A_DTS

Duration                                 : 2 h 23 min

Bit rate mode                            : Variable

Bit rate                                 : 2 273 kb/s

Channel(s)                               : 6 channels

Channel layout                           : C L R Ls Rs LFE

Sampling rate                            : 48.0 kHz

Frame rate                               : 93.750 FPS (512 SPF)

Bit depth                                : 16 bits

Compression mode                         : Lossless

Stream size                              : 2.28 GiB (14%)

Language                                 : English

Default                                  : Yes

Forced                                   : No



Audio #2

ID                                       : 3

Format                                   : AC-3

Format/Info                              : Audio Coding 3

Commercial name                          : Dolby Digital

Codec ID                                 : A_AC3

Duration                                 : 2 h 23 min

Bit rate mode                            : Constant

Bit rate                                 : 192 kb/s

Channel(s)                               : 2 channels

Channel layout                           : L R

Sampling rate                            : 48.0 kHz

Frame rate                               : 31.250 FPS (1536 SPF)

Bit depth                                : 16 bits

Compression mode                         : Lossy

Stream size                              : 197 MiB (1%)

Title                                    : Commentary by Director Edward Zwick

Language                                 : English

Service kind                             : Complete Main

Default                                  : No

Forced                                   : No



Text #1

ID                                       : 4

Format                                   : PGS

Codec ID                                 : S_HDMV/PGS

Codec ID/Info                            : Picture based subtitle format used on BDs/HD-DVDs

Duration                                 : 2 h 12 min

Bit rate                                 : 1 795 b/s

Count of elements                        : 112

Stream size                              : 1.70 MiB (0%)

Title                                    : English (Forced)

Language                                 : English

Default                                  : No

Forced                                   : Yes



Text #2

ID                                       : 5

Format                                   : PGS

Codec ID                                 : S_HDMV/PGS

Codec ID/Info                            : Picture based subtitle format used on BDs/HD-DVDs

Duration                                 : 2 h 22 min

Bit rate                                 : 45.8 kb/s

Count of elements                        : 2764

Stream size                              : 46.6 MiB (0%)

Title                                    : English

Language                                 : English

Default                                  : No

Forced                                   : No



Text #3

ID                                       : 6

Format                                   : PGS

Codec ID                                 : S_HDMV/PGS

Codec ID/Info                            : Picture based subtitle format used on BDs/HD-DVDs

Duration                                 : 2 h 22 min

Bit rate                                 : 31.2 kb/s

Count of elements                        : 3622

Stream size                              : 31.8 MiB (0%)

Title                                    : English (SDH)

Language                                 : English

Default                                  : No

Forced                                   : No



Text #4

ID                                       : 7

Format                                   : PGS

Codec ID                                 : S_HDMV/PGS

Codec ID/Info                            : Picture based subtitle format used on BDs/HD-DVDs

Duration                                 : 2 h 22 min

Bit rate                                 : 13.9 kb/s

Count of elements                        : 2908

Stream size                              : 14.2 MiB (0%)

Title                                    : Arabic

Language                                 : Arabic

Default                                  : No

Forced                                   : No



Text #5

ID                                       : 8

Format                                   : PGS

Codec ID                                 : S_HDMV/PGS

Codec ID/Info                            : Picture based subtitle format used on BDs/HD-DVDs

Duration                                 : 2 h 22 min

Bit rate                                 : 19.6 kb/s

Count of elements                        : 2318

Stream size                              : 20.0 MiB (0%)

Title                                    : Bulgarian

Language                                 : Bulgarian

Default                                  : No

Forced                                   : No



Text #6

ID                                       : 9

Format                                   : PGS

Codec ID                                 : S_HDMV/PGS

Codec ID/Info                            : Picture based subtitle format used on BDs/HD-DVDs

Duration                                 : 2 h 22 min

Bit rate                                 : 22.2 kb/s

Count of elements                        : 2888

Stream size                              : 22.6 MiB (0%)

Title                                    : Croatian

Language                                 : Croatian

Default                                  : No

Forced                                   : No



Text #7

ID                                       : 10

Format                                   : PGS

Codec ID                                 : S_HDMV/PGS

Codec ID/Info                            : Picture based subtitle format used on BDs/HD-DVDs

Duration                                 : 2 h 22 min

Bit rate                                 : 21.2 kb/s

Count of elements                        : 2314

Stream size                              : 21.7 MiB (0%)

Title                                    : Czech

Language                                 : Czech

Default                                  : No

Forced                                   : No



Text #8

ID                                       : 11

Format                                   : PGS

Codec ID                                 : S_HDMV/PGS

Codec ID/Info                            : Picture based subtitle format used on BDs/HD-DVDs

Duration                                 : 2 h 22 min

Bit rate                                 : 36.4 kb/s

Count of elements                        : 1983

Stream size                              : 37.1 MiB (0%)

Title                                    : Danish

Language                                 : Danish

Default                                  : No

Forced                                   : No



Text #9

ID                                       : 12

Format                                   : PGS

Codec ID                                 : S_HDMV/PGS

Codec ID/Info                            : Picture based subtitle format used on BDs/HD-DVDs

Duration                                 : 2 h 22 min

Bit rate                                 : 34.3 kb/s

Count of elements                        : 2136

Stream size                              : 35.0 MiB (0%)

Title                                    : Dutch

Language                                 : Dutch

Default                                  : No

Forced                                   : No



Text #10

ID                                       : 13

Format                                   : PGS

Codec ID                                 : S_HDMV/PGS

Codec ID/Info                            : Picture based subtitle format used on BDs/HD-DVDs

Duration                                 : 2 h 22 min

Bit rate                                 : 20.3 kb/s

Count of elements                        : 2180

Stream size                              : 20.8 MiB (0%)

Title                                    : Estonian

Language                                 : Estonian

Default                                  : No

Forced                                   : No



Text #11

ID                                       : 14

Format                                   : PGS

Codec ID                                 : S_HDMV/PGS

Codec ID/Info                            : Picture based subtitle format used on BDs/HD-DVDs

Duration                                 : 2 h 22 min

Bit rate                                 : 36.8 kb/s

Count of elements                        : 2196

Stream size                              : 37.5 MiB (0%)

Title                                    : Finnish

Language                                 : Finnish

Default                                  : No

Forced                                   : No



Text #12

ID                                       : 15

Format                                   : PGS

Codec ID                                 : S_HDMV/PGS

Codec ID/Info                            : Picture based subtitle format used on BDs/HD-DVDs

Duration                                 : 2 h 22 min

Bit rate                                 : 43.4 kb/s

Count of elements                        : 2736

Stream size                              : 44.3 MiB (0%)

Title                                    : French

Language                                 : French

Default                                  : No

Forced                                   : No



Text #13

ID                                       : 16

Format                                   : PGS

Codec ID                                 : S_HDMV/PGS

Codec ID/Info                            : Picture based subtitle format used on BDs/HD-DVDs

Duration                                 : 2 h 22 min

Bit rate                                 : 54.2 kb/s

Count of elements                        : 2998

Stream size                              : 55.2 MiB (0%)

Title                                    : German

Language                                 : German

Default                                  : No

Forced                                   : No



Text #14

ID                                       : 17

Format                                   : PGS

Codec ID                                 : S_HDMV/PGS

Codec ID/Info                            : Picture based subtitle format used on BDs/HD-DVDs

Duration                                 : 2 h 22 min

Bit rate                                 : 37.1 kb/s

Count of elements                        : 3722

Stream size                              : 37.8 MiB (0%)

Title                                    : German (SDH)

Language                                 : German

Default                                  : No

Forced                                   : No



Text #15

ID                                       : 18

Format                                   : PGS

Codec ID                                 : S_HDMV/PGS

Codec ID/Info                            : Picture based subtitle format used on BDs/HD-DVDs

Duration                                 : 2 h 22 min

Bit rate                                 : 23.9 kb/s

Count of elements                        : 2804

Stream size                              : 24.4 MiB (0%)

Title                                    : Greek

Language                                 : Greek

Default                                  : No

Forced                                   : No



Text #16

ID                                       : 19

Format                                   : PGS

Codec ID                                 : S_HDMV/PGS

Codec ID/Info                            : Picture based subtitle format used on BDs/HD-DVDs

Duration                                 : 2 h 22 min

Bit rate                                 : 17.0 kb/s

Count of elements                        : 2908

Stream size                              : 17.3 MiB (0%)

Title                                    : Hebrew

Language                                 : Hebrew

Default                                  : No

Forced                                   : No



Text #17

ID                                       : 20

Format                                   : PGS

Codec ID                                 : S_HDMV/PGS

Codec ID/Info                            : Picture based subtitle format used on BDs/HD-DVDs

Duration                                 : 2 h 22 min

Bit rate                                 : 21.8 kb/s

Count of elements                        : 2430

Stream size                              : 22.2 MiB (0%)

Title                                    : Hungarian

Language                                 : Hungarian

Default                                  : No

Forced                                   : No



Text #18

ID                                       : 21

Format                                   : PGS

Codec ID                                 : S_HDMV/PGS

Codec ID/Info                            : Picture based subtitle format used on BDs/HD-DVDs

Duration                                 : 2 h 22 min

Bit rate                                 : 27.9 kb/s

Count of elements                        : 2908

Stream size                              : 28.4 MiB (0%)

Title                                    : Italian

Language                                 : Italian

Default                                  : No

Forced                                   : No



Text #19

ID                                       : 22

Format                                   : PGS

Codec ID                                 : S_HDMV/PGS

Codec ID/Info                            : Picture based subtitle format used on BDs/HD-DVDs

Duration                                 : 2 h 22 min

Bit rate                                 : 33.4 kb/s

Count of elements                        : 3654

Stream size                              : 34.0 MiB (0%)

Title                                    : Italian (SDH)

Language                                 : Italian

Default                                  : No

Forced                                   : No



Text #20

ID                                       : 23

Format                                   : PGS

Codec ID                                 : S_HDMV/PGS

Codec ID/Info                            : Picture based subtitle format used on BDs/HD-DVDs

Duration                                 : 2 h 22 min

Bit rate                                 : 18.7 kb/s

Count of elements                        : 2192

Stream size                              : 19.1 MiB (0%)

Title                                    : Latvian

Language                                 : Latvian

Default                                  : No

Forced                                   : No



Text #21

ID                                       : 24

Format                                   : PGS

Codec ID                                 : S_HDMV/PGS

Codec ID/Info                            : Picture based subtitle format used on BDs/HD-DVDs

Duration                                 : 2 h 22 min

Bit rate                                 : 23.4 kb/s

Count of elements                        : 2832

Stream size                              : 23.9 MiB (0%)

Title                                    : Lithuanian

Language                                 : Lithuanian

Default                                  : No

Forced                                   : No



Text #22

ID                                       : 25

Format                                   : PGS

Codec ID                                 : S_HDMV/PGS

Codec ID/Info                            : Picture based subtitle format used on BDs/HD-DVDs

Duration                                 : 2 h 22 min

Bit rate                                 : 21.7 kb/s

Count of elements                        : 2158

Stream size                              : 22.2 MiB (0%)

Title                                    : Norwegian

Language                                 : Norwegian

Default                                  : No

Forced                                   : No



Text #23

ID                                       : 26

Format                                   : PGS

Codec ID                                 : S_HDMV/PGS

Codec ID/Info                            : Picture based subtitle format used on BDs/HD-DVDs

Duration                                 : 2 h 22 min

Bit rate                                 : 23.0 kb/s

Count of elements                        : 2644

Stream size                              : 23.4 MiB (0%)

Title                                    : Polish

Language                                 : Polish

Default                                  : No

Forced                                   : No



Text #24

ID                                       : 27

Format                                   : PGS

Codec ID                                 : S_HDMV/PGS

Codec ID/Info                            : Picture based subtitle format used on BDs/HD-DVDs

Duration                                 : 2 h 22 min

Bit rate                                 : 45.2 kb/s

Count of elements                        : 2912

Stream size                              : 46.1 MiB (0%)

Title                                    : Portuguese

Language                                 : Portuguese

Default                                  : No

Forced                                   : No



Text #25

ID                                       : 28

Format                                   : PGS

Codec ID                                 : S_HDMV/PGS

Codec ID/Info                            : Picture based subtitle format used on BDs/HD-DVDs

Duration                                 : 2 h 22 min

Bit rate                                 : 23.5 kb/s

Count of elements                        : 2790

Stream size                              : 23.9 MiB (0%)

Title                                    : Romanian

Language                                 : Romanian

Default                                  : No

Forced                                   : No



Text #26

ID                                       : 29

Format                                   : PGS

Codec ID                                 : S_HDMV/PGS

Codec ID/Info                            : Picture based subtitle format used on BDs/HD-DVDs

Duration                                 : 2 h 22 min

Bit rate                                 : 26.2 kb/s

Count of elements                        : 2934

Stream size                              : 26.7 MiB (0%)

Title                                    : Russian

Language                                 : Russian

Default                                  : No

Forced                                   : No



Text #27

ID                                       : 30

Format                                   : PGS

Codec ID                                 : S_HDMV/PGS

Codec ID/Info                            : Picture based subtitle format used on BDs/HD-DVDs

Duration                                 : 2 h 22 min

Bit rate                                 : 21.3 kb/s

Count of elements                        : 2818

Stream size                              : 21.7 MiB (0%)

Title                                    : Serbian

Language                                 : Serbian

Default                                  : No

Forced                                   : No



Text #28

ID                                       : 31

Format                                   : PGS

Codec ID                                 : S_HDMV/PGS

Codec ID/Info                            : Picture based subtitle format used on BDs/HD-DVDs

Duration                                 : 2 h 22 min

Bit rate                                 : 41.9 kb/s

Count of elements                        : 2738

Stream size                              : 42.7 MiB (0%)

Title                                    : Spanish (Castilian)

Language                                 : Spanish

Default                                  : No

Forced                                   : No



Text #29

ID                                       : 32

Format                                   : PGS

Codec ID                                 : S_HDMV/PGS

Codec ID/Info                            : Picture based subtitle format used on BDs/HD-DVDs

Duration                                 : 2 h 22 min

Bit rate                                 : 49.6 kb/s

Count of elements                        : 2926

Stream size                              : 50.7 MiB (0%)

Title                                    : Spanish (Latin American)

Language                                 : Spanish

Default                                  : No

Forced                                   : No



Text #30

ID                                       : 33

Format                                   : PGS

Codec ID                                 : S_HDMV/PGS

Codec ID/Info                            : Picture based subtitle format used on BDs/HD-DVDs

Duration                                 : 2 h 22 min

Bit rate                                 : 34.5 kb/s

Count of elements                        : 2018

Stream size                              : 35.2 MiB (0%)

Title                                    : Swedish

Language                                 : Swedish

Default                                  : No

Forced                                   : No



Text #31

ID                                       : 34

Format                                   : PGS

Codec ID                                 : S_HDMV/PGS

Codec ID/Info                            : Picture based subtitle format used on BDs/HD-DVDs

Duration                                 : 2 h 22 min

Bit rate                                 : 26.3 kb/s

Count of elements                        : 2906

Stream size                              : 26.8 MiB (0%)

Title                                    : Turkish

Language                                 : Turkish

Default                                  : No

Forced                                   : No



Text #32

ID                                       : 35

Format                                   : PGS

Codec ID                                 : S_HDMV/PGS

Codec ID/Info                            : Picture based subtitle format used on BDs/HD-DVDs

Duration                                 : 2 h 22 min

Bit rate                                 : 23.2 kb/s

Count of elements                        : 2916

Stream size                              : 23.7 MiB (0%)

Title                                    : Ukrainian

Language                                 : Ukrainian

Default                                  : No

Forced                                   : No



Menu

00:00:00.000                             : en:Caught in Revolution's Net

00:06:32.559                             : en:Conflict Zone Statistics

00:08:57.537                             : en:Danny Negotiates

00:14:38.211                             : en:Give It to Me

00:18:05.251                             : en:Hidden Stones

00:21:56.482                             : en:Meeting Maddy

00:27:35.988                             : en:Soldiers and Captives

00:30:43.175                             : en:Colored By Blood

00:34:48.086                             : en:Soldier of the Revolution

00:37:43.761                             : en:Get Over Yourself

00:41:20.812                             : en:Freetown Siege

00:47:08.659                             : en:Shooting to Kill

00:50:19.683                             : en:Using Each Other

00:53:58.235                             : en:Unhappy Reunion

00:57:38.622                             : en:His Only Chance

01:04:04.007                             : en:A Little Bang-Bang

01:08:51.461                             : en:Drive to Survive

01:11:17.773                             : en:Good Intentions

01:16:19.909                             : en:Painful History

01:21:18.540                             : en:Child Soldier's Target

01:24:27.229                             : en:Parting Company

01:29:51.720                             : en:After Skinning

01:34:16.985                             : en:The Master

01:37:39.187                             : en:Searching for Dia

01:43:13.020                             : en:A Father Forsaken

01:46:02.856                             : en:Kill Them All

01:50:56.984                             : en:Deadly Digsite

01:56:07.794                             : en:I Am Your Father

01:59:04.471                             : en:Take Your Boy Home

02:04:21.454                             : en:A Real Story Now

02:08:59.065                             : en:Solomon Negotiates

02:12:07.753                             : en:Third World's Voice; Coda

02:14:56.922                             : en:End Credits



Hello everyone,

We are TAoE, a small team of passionate encoders who love encoding. We try our best to provide you with high quality releases.



Requests for movies and shows are welcome.

We have a form for encode requests which can be found here

Encode requests form

submit your request and it will be added to our encoding request list

You can view our encoding request list here

Encode requests list





When or if we encode it will depend on if we can obtain a good source to encode with and

if one of the TAoE encoders chooses to encode it. Unfortunately we are not able to encode everything,

new members are welcome as that helps us encode more content!



If you would like to join TAoE submit your request here!

TAoE member applications form









.........................................................................................................................................

Discussion

Comments 0

Post Your Comment

Files in this torrent

FILENAMESIZE
Blood Diamond (2006) (1080p BDRip x265 10bit EAC3 5.1 - xtrem3x)[TAoE].mkv9.4 GB

Alternative Torrents for 'Blood Diamond bit EAC xtremx'.

There are no alternative torrents found.