Garbh 2017 Marathi 1080p Web-DL X264 AAC [TMB]

Torrent Details

Garbh 2017 Marathi 1080p Web-DL x264 AAC [TMB]

NAME
Garbh 2017 Marathi 1080p Web-DL x264 AAC [TMB].torrent
CATEGORY
Movies
INFOHASH
ceae7e27e4796e58f2d08d57e712f61a8870da5a
SIZE
2.1 GB in 1 file
ADDED
Uploaded on 16-06-2020 by our crawler pet called "Spidey".
SWARM
0 seeders & 0 peers
RATING
No votes yet.

Please login to vote for this torrent.


Description





















General

Complete name              : Garbh 2017 Marathi 1080p Web-DL x264 AAC [TMB].mkv

Format                      : Matroska

Format version              : Version 4

File size                  : 2.12 GiB

Duration                    : 2 h 14 min

Overall bit rate            : 2 249 kb/s



Video

Format                      : AVC

Format/Info                : Advanced Video Codec

Format profile              : [email protected]

Format settings            : CABAC / 4 Ref Frames

Format settings, CABAC      : Yes

Format settings, Reference  : 4 frames

Codec ID                    : V_MPEG4/ISO/AVC

Duration                    : 2 h 14 min

Bit rate                    : 2 200 kb/s

Width                      : 1 920 pixels

Height                      : 1 080 pixels

Display aspect ratio        : 16:9

Frame rate mode            : Constant

Frame rate                  : 25.000 FPS

Color space                : YUV

Chroma subsampling          : 4:2:0

Bit depth                  : 8 bits

Scan type                  : Progressive

Bits/(Pixel*Frame)          : 0.042

Stream size                : 2.02 GiB (96%)



Audio

Format                      : AAC LC

Format/Info                : Advanced Audio Codec Low Complexity

Codec ID                    : A_AAC-2

Duration                    : 2 h 14 min

Bit rate                    : 96.0 kb/s

Channel(s)                  : 2 channels

Channel layout              : L R

Sampling rate              : 48.0 kHz

Frame rate                  : 46.875 FPS (1024 SPF)

Compression mode            : Lossy

Stream size                : 94.2 MiB (4%)





https://www.imdb.com/title/tt6685926/



Uploaded & Shared by TMB



Seeding 24x7... Extreme Seeding...





Enjoy!



Discussion

Comments 0

Post Your Comment

Files in this torrent

FILENAMESIZE
Garbh 2017 Marathi 1080p Web-DL x264 AAC [TMB].mkv2.1 GB

Alternative Torrents for 'Garbh Marathi AAC TMB'.

TORRENT NAMEADDEDSIZESEEDSPEERSHEALTH
6/16/20202.1 GB00
9/15/20192.1 GB00