ITALIAN_JOB_Title1

Torrent Details

ITALIAN_JOB_Title1

NAME
ITALIAN_JOB_Title1.torrent
CATEGORY
Movies
INFOHASH
d57c833c34df52c318f933d9f9cde412c64c9982
SIZE
1 GB in 1 file
ADDED
Uploaded on 16-06-2020 by our crawler pet called "Spidey".
SWARM
0 seeders & 0 peers
RATING
No votes yet.

Please login to vote for this torrent.


Description







The Italian Job (2003)

480p Dvd Rip

Hash Code:

D57C833C34DF52C318F933D9F9CDE412C64C9982























^Tap on image above for IMDb Info for this film^



General

Complete name                            : The Italian Job_Title1.mp4

Format                                   : MPEG-4

Format profile                           : Base Media

Codec ID                                 : isom (isom/iso2/avc1/mp41)

File size                                : 1.03 GiB

Duration                                 : 1 h 50 min

Overall bit rate                         : 1 333 kb/s

Movie name                               : ITALIAN_JOB

Genre                                    : Crime

Writing application                      : Lavf54.6.100



Video

ID                                       : 1

Format                                   : AVC

Format/Info                              : Advanced Video Codec

Format profile                           : [email protected]

Format settings                          : 6 Ref Frames

Format settings, CABAC                   : No

Format settings, Reference frames        : 6 frames

Codec ID                                 : avc1

Codec ID/Info                            : Advanced Video Coding

Duration                                 : 1 h 50 min

Bit rate                                 : 1 199 kb/s

Width                                    : 720 pixels

Height                                   : 404 pixels

Display aspect ratio                     : 16:9

Frame rate mode                          : Constant

Frame rate                               : 29.970 (30000/1001) FPS

Color space                              : YUV

Chroma subsampling                       : 4:2:0

Bit depth                                : 8 bits

Scan type                                : Progressive

Bits/(Pixel*Frame)                       : 0.137

Stream size                              : 947 MiB (90%)

Codec configuration box                  : avcC



Audio

ID                                       : 2

Format                                   : AAC LC

Format/Info                              : Advanced Audio Codec Low Complexity

Codec ID                                 : mp4a-40-2

Duration                                 : 1 h 50 min

Bit rate mode                            : Constant

Bit rate                                 : 128 kb/s

Channel(s)                               : 2 channels

Channel layout                           : L R

Sampling rate                            : 44.1 kHz

Frame rate                               : 43.066 FPS (1024 SPF)

Compression mode                         : Lossy

Stream size                              : 101 MiB (10%)

Default                                  : Yes

Alternate group                          : 1

Discussion

Comments 0

Post Your Comment

Files in this torrent

FILENAMESIZE
ITALIAN_JOB_Title1.mp41 GB

Alternative Torrents for 'ITALIANJOBTitle'.

There are no alternative torrents found.