Герой по вызову

Torrent Details


Герой по вызову

NAME
Герой по вызову.torrent
CATEGORY
Television
INFOHASH
63d0958c1064dee7c9461a4b2cdb4f384be512ae
SIZE
2.2 GB in 0 files
ADDED
Uploaded on 16-06-2020 by our crawler pet called "Spidey".
SWARM
0 seeders & 0 peers
RATING
No votes yet.

Please login to vote for this torrent.


Description

>Информация о фильме

>Название: Герой по вызову

>Год выхода: 2020

>Жанр: детектив, комедия

>Режиссер: Анна Зайцева



>В ролях: Евгений Миллер, Кристина Асмус, Николай Клямчук, Михаил Евланов, Марина Калецкая, Владимир Виноградов, Константин Тополага, Юрий Николаенко, Ирина Вербицкая, Константин Соловьев



>О фильме:

В центре сюжета – Иван Лутошин, врач-невролог по профессии и неудачник по жизни. Он узнаёт, что у него неоперабельная опухоль мозга и ему осталось жить полгода. Он решает покончить жизнь самоубийством: напившись, выходит на скоростную трассу и встаёт на полосе. Но машина успевает вырулить с дороги. За рулём - оперуполномоченный полиции Туманов: узнав о проблеме случайного знакомого, он предлагает ему поучаствовать в смертельно опасных операциях по поимке бандитов – если убьют, то хотя бы не напрасно.





>Страна: Россия | Рим

>Продолжительность: ~ 00:47:00

>Язык: Русский

>Субтитры:нет



>Файл

>Качество: SATRip-AVC

>Видео: MPEG-4 AVC, ~ 1500 Кбит/с, 720х400

>Звук: AC3, 2 ch, 192 Кбит/с











MediaInfo

Общее

Уникальный идентификатор : 211263571764633794700154825239732214929 (0x9EEFE247664A4DDBB97D4FF8A330DC91)

Полное имя : H:Герой по вызову1 серия_Герой по вызову_rip by_Aleksan55.mkv

Формат : Matroska

Версия формата : Version 2

Размер файла : 573 Мбайт

Продолжительность : 47 м. 19 с.

Общий поток : 1694 Кбит/сек

Дата кодирования : UTC 2020-06-15 12:55:23

Программа кодирования : mkvmerge v7.8.0 ('River Man') 32bit built on Apr 3 2015 12:11:22

Библиотека кодирования : libebml v1.3.1 + libmatroska v1.4.2



Видео

Идентификатор : 1

Формат : AVC

Формат/Информация : Advanced Video Codec

Профиль формата : [email protected]

Настройки формата : CABAC / 12 Ref Frames

Параметр CABAC формата : Да

Параметр RefFrames формата : 12 кадров

Идентификатор кодека : V_MPEG4/ISO/AVC

Продолжительность : 47 м. 19 с.

Битрейт : 1500 Кбит/сек

Ширина : 720 пикселей

Высота : 400 пикселей

Соотношение сторон : 16:9

Режим частоты кадров : Постоянный

Частота кадров : 25,000 кадров/сек

Цветовое пространство : YUV

Субдискретизация насыщенности : 4:2:0

Битовая глубина : 8 бит

Тип развёртки : Прогрессивная

Бит/(Пиксели*Кадры) : 0.208

Размер потока : 497 Мбайт (87%)

Библиотека кодирования : x264 core 146 r2538 121396c

Настройки программы : cabac=1 / ref=12 / deblock=1:-2:-2 / analyse=0x3:0x133 / me=umh / subme=9 / psy=1 / psy_rd=1.00:0.15 / mixed_ref=0 / me_range=24 / chroma_me=1 / trellis=2 / 8x8dct=1 / cqm=0 / deadzone=21,11 / fast_pskip=0 / chroma_qp_offset=-3 / threads=10 / lookahead_threads=5 / sliced_threads=0 / nr=0 / decimate=0 / interlaced=0 / bluray_compat=0 / constrained_intra=0 / bframes=12 / b_pyramid=2 / b_adapt=2 / b_bias=0 / direct=3 / weightb=1 / open_gop=0 / weightp=2 / keyint=250 / keyint_min=25 / scenecut=40 / intra_refresh=0 / rc_lookahead=40 / rc=2pass / mbtree=1 / bitrate=1500 / ratetol=1.0 / qcomp=0.60 / qpmin=0 / qpmax=60 / qpstep=4 / cplxblur=20.0 / qblur=0.5 / ip_ratio=1.40 / aq=1:1.00

Default : Да

Forced : Нет

Цветовой диапазон : Limited

Основные цвета : BT.601 PAL

Характеристики трансфера : BT.470 System B/G

Коэффициенты матрицы : BT.470 System B/G



Аудио

Идентификатор : 2

Формат : AC-3

Формат/Информация : Audio Coding 3

Коммерческое название : Dolby Digital

Идентификатор кодека : A_AC3

Продолжительность : 47 м. 19 с.

Вид битрейта : Постоянный

Битрейт : 192 Кбит/сек

Каналы : 2 канала

ChannelLayout : L R

Частота : 48,0 КГц

Частота кадров : 31,250 кадров/сек (1536 SPF)

Метод сжатия : С потерями

Размер потока : 65,0 Мбайт (11%)

Default : Да

Forced : Нет

Скриншоты



Внимание! Раздача ведётся путём добавления новых серийВнимание! Раздача ведётся путём добавления новых серий; при каждом добавлении создаётся новый торрент.

Чтобы начать докачку новой серии, пользователям необходимо сделать следующее:

1. Остановить скачивание;

2. Удалить старый торрент у себя из клиента (старые серии удалять не надо);

3. Скачать новый торрент и запустить его у себя в клиенте вместо старого, при этом указать клиенту путь в старую папку куда и должно происходить скачивание новых серий. Ваш клиент при этом должен произвести хеширование (проверку) старой папки и будет докачивать только те серии, которых у вас ещё нет. Старые серии при этом не удаляются, а продолжают раздаваться! Eсли вы уже удалили старые серии, то предотвратить повторную закачку старых серий можно, отжав галочку в соответствующих местах при запуске нового торрента.



Discussion

Comments 0

Post Your Comment

Torrent Files (Unavailable)

Please check back later to get a list of all files included in this torrent.

Alternative Torrents for 'Герой по вызову'.

TORRENT NAMEADDEDSIZESEEDSPEERSHEALTH
6/30/20205.8 GB141
6/19/20205.4 GB00
6/18/20204.4 GB00
6/17/20203.3 GB00
6/16/20202.2 GB00
6/16/20201.2 GB00
6/15/2020750 MB00
6/15/20201.1 GB00