Pinocchio (2019) BDRemux 1080p [ukr, Ita] [Hurtom]

Torrent Details

Pinocchio (2019) BDRemux 1080p [ukr, ita] [Hurtom]

NAME
Pinocchio (2019) BDRemux 1080p [ukr, ita] [Hurtom].torrent
CATEGORY
Movies
INFOHASH
37164b33c189686f37ed6e8d820e1948e5bd44ba
SIZE
33.2 GB in 1 file
ADDED
Uploaded on 16-06-2020 by our crawler pet called "Spidey".
SWARM
0 seeders & 0 peers
RATING
No votes yet.

Please login to vote for this torrent.


Description

Информация о фильме

Название: Пиноккио

Оригинальное название: Pinocchio

Год выхода: 2019

Жанр: Фэнтези





Режиссер: Маттео Гарроне





В ролях: Роберто Бениньи, Федерико Иелапи, Рокко Папалео, Массимо Чеккерини, Марин Вакт, Джиджи Пройетти, Алида Бальдари Калабрия, Алессио Ди Доменикантонио, Мария Пиа Тимо, Давиде Маротта





О фильме:

Легендарная история оживает на больших экранах, как никогда прежде. Невероятное путешествие в мир удивительных созданий и волшебства, где даже деревянная кукла может стать настоящим человеком, если пожелает этого чистым сердцем.











Страна: Италия, Франция, Великобритания

Продолжительность: 02:05:00

Перевод: Профессиональный дублированный (Украинский) | iTunes





Файл

Кодек: H.264

Качество: BDRemux 1080p

Видео: AVC, 1920x1080 (16:9), 24.000 fps, 34.8 Mb/s

Аудио 1: AC3, 48.0 kHz, 6 ch, 384 kb/s | UKR

Аудио 2: AC3, 48.0 kHz, 6 ch, 448 kb/s | ITA

Аудио 3: DTS-HD MA, 48.0 kHz, 6 ch, 2 373 kb/s | ITA

Субтитры: английские





MIGeneral

Complete name : Pinocchio (2019) BDRemux 1080p [ukr, ita] [Hurtom].mkv

Format : Matroska

Format version : Version 4

File size : 33.2 GiB

Duration : 2 h 4 min

Overall bit rate mode : Variable

Overall bit rate : 38.0 Mb/s

Movie name : Пригоди Піноккіо / Pinocchio (2019)

Encoded date : UTC 2020-06-13 21:51:33

Writing application : mkvmerge v30.1.0 ('Forever And More') 64-bit

Writing library : libebml v1.3.6 + libmatroska v1.4.9

Cover : Yes

Attachments : cover.jpg



Video

ID : 1

Format : AVC

Format/Info : Advanced Video Codec

Format profile : [email protected]

Format settings : CABAC / 4 Ref Frames

Format settings, CABAC : Yes

Format settings, RefFrames : 4 frames

Format settings, GOP : M=3, N=12

Codec ID : V_MPEG4/ISO/AVC

Duration : 2 h 4 min

Bit rate mode : Variable

Bit rate : 34.8 Mb/s

Maximum bit rate : 38.0 Mb/s

Width : 1 920 pixels

Height : 1 080 pixels

Display aspect ratio : 16:9

Frame rate mode : Constant

Frame rate : 24.000 FPS

Color space : YUV

Chroma subsampling : 4:2:0

Bit depth : 8 bits

Scan type : Progressive

Bits/(Pixel*Frame) : 0.700

Stream size : 30.4 GiB (92%)

Default : Yes

Forced : No



Audio #1

ID : 2

Format : AC-3

Format/Info : Audio Coding 3

Commercial name : Dolby Digital

Codec ID : A_AC3

Duration : 2 h 4 min

Bit rate mode : Constant

Bit rate : 384 kb/s

Channel(s) : 6 channels

Channel layout : L R C LFE Ls Rs

Sampling rate : 48.0 kHz

Frame rate : 31.250 FPS (1536 SPF)

Bit depth : 16 bits

Compression mode : Lossy

Stream size : 343 MiB (1%)

Title : AC3, 5.1, 384 Kbps

Language : Ukrainian

Service kind : Complete Main

Default : Yes

Forced : No



Audio #2

ID : 3

Format : AC-3

Format/Info : Audio Coding 3

Commercial name : Dolby Digital

Codec ID : A_AC3

Duration : 2 h 4 min

Bit rate mode : Constant

Bit rate : 448 kb/s

Channel(s) : 6 channels

Channel layout : L R C LFE Ls Rs

Sampling rate : 48.0 kHz

Frame rate : 31.250 FPS (1536 SPF)

Bit depth : 16 bits

Compression mode : Lossy

Stream size : 401 MiB (1%)

Title : AC3, 5.1, 448 Kbps

Language : Italian

Service kind : Complete Main

Default : No

Forced : No



Audio #3

ID : 4

Format : DTS XLL

Format/Info : Digital Theater Systems

Commercial name : DTS-HD Master Audio

Codec ID : A_DTS

Duration : 2 h 4 min

Bit rate mode : Variable

Bit rate : 2 373 kb/s

Channel(s) : 6 channels

Channel layout : C L R Ls Rs LFE

Sampling rate : 48.0 kHz

Frame rate : 93.750 FPS (512 SPF)

Bit depth : 16 bits

Compression mode : Lossless

Stream size : 2.07 GiB (6%)

Title : DTS-HD MA, 5.1, 2373 Kbps

Language : Italian

Default : No

Forced : No



Text

ID : 5

Format : UTF-8

Codec ID : S_TEXT/UTF8

Codec ID/Info : UTF-8 Plain Text

Duration : 1 h 54 min

Bit rate : 49 b/s

Count of elements : 1298

Stream size : 41.7 KiB (0%)

Language : English

Default : Yes

Forced : NoСкриншоты

Discussion

Comments 0

Post Your Comment

Files in this torrent

FILENAMESIZE
Pinocchio (2019) BDRemux 1080p [ukr, ita] [Hurtom].mkv33.2 GB

Alternative Torrents for 'Pinocchio ukr Hurtom'.

TORRENT NAMEADDEDSIZESEEDSPEERSHEALTH
6/16/20202 GB00
6/16/20202.2 GB00
6/16/20205.8 GB00
6/16/202033.2 GB00
6/16/202010.2 GB00