Pinocchio (2019) BDRip 720p [UKR_ITA] [Hurtom]

Torrent Details

Pinocchio (2019) BDRip 720p [UKR_ITA] [Hurtom]

NAME
Pinocchio (2019) BDRip 720p [UKR_ITA] [Hurtom].torrent
CATEGORY
Movies
INFOHASH
8fee4653248f725e9e84d82150332460b4e07cdf
SIZE
5.8 GB in 1 file
ADDED
Uploaded on 16-06-2020 by our crawler pet called "Spidey".
SWARM
0 seeders & 0 peers
RATING
No votes yet.

Please login to vote for this torrent.


Description

Информация о фильме

Название: Пиноккио

Оригинальное название: Pinocchio

Год выхода: 2019

Жанр: Фэнтези





Режиссер: Маттео Гарроне





В ролях: Роберто Бениньи, Федерико Иелапи, Рокко Папалео, Массимо Чеккерини, Марин Вакт, Джиджи Пройетти, Алида Бальдари Калабрия, Алессио Ди Доменикантонио, Мария Пиа Тимо, Давиде Маротта





О фильме:

Легендарная история оживает на больших экранах, как никогда прежде. Невероятное путешествие в мир удивительных созданий и волшебства, где даже деревянная кукла может стать настоящим человеком, если пожелает этого чистым сердцем.











Страна: Италия, Франция, Великобритания

Продолжительность: 02:04:59

Перевод: Профессиональный дублированный (Украинский) | iTunes





Файл

Кодек: x.264

Качество: BDRip 720p

Видео: AVC, 1280x536 (2.40:1), 24.000 fps, 5 565 kb/s

Аудио 1: AC3, 48.0 kHz, 6 ch, 384 kb/s | UKR

Аудио 2: AC3, 48.0 kHz, 6 ch, 640 kb/s | ITA

Субтитры: английские





MIGeneral

Complete name : Pinocchio (2019) BDRip 720p [UKR_ITA] [Hurtom].mkv

Format : Matroska

Format version : Version 4

File size : 5.76 GiB

Duration : 2 h 4 min

Overall bit rate : 6 592 kb/s

Movie name : Пригоди Піноккіо / Pinocchio (2019)

Encoded date : UTC 2020-06-13 22:12:33

Writing application : mkvmerge v30.1.0 ('Forever And More') 64-bit

Writing library : libebml v1.3.6 + libmatroska v1.4.9

Cover : Yes

Attachments : cover.jpg



Video

ID : 1

Format : AVC

Format/Info : Advanced Video Codec

Format profile : [email protected]

Format settings : CABAC / 12 Ref Frames

Format settings, CABAC : Yes

Format settings, RefFrames : 12 frames

Codec ID : V_MPEG4/ISO/AVC

Duration : 2 h 4 min

Bit rate : 5 565 kb/s

Width : 1 280 pixels

Height : 536 pixels

Display aspect ratio : 2.40:1

Frame rate mode : Constant

Frame rate : 24.000 FPS

Color space : YUV

Chroma subsampling : 4:2:0

Bit depth : 8 bits

Scan type : Progressive

Bits/(Pixel*Frame) : 0.338

Stream size : 4.86 GiB (84%)

Title : playHD

Writing library : x264 core 144 r2525 40bb568

Encoding settings : cabac=1 / ref=12 / deblock=1:-3:-3 / analyse=0x3:0x133 / me=umh / subme=10 / psy=1 / psy_rd=1.00:0.00 / mixed_ref=1 / me_range=32 / chroma_me=1 / trellis=2 / 8x8dct=1 / cqm=0 / deadzone=21,11 / fast_pskip=0 / chroma_qp_offset=-2 / threads=12 / lookahead_threads=2 / sliced_threads=0 / nr=0 / decimate=0 / interlaced=0 / bluray_compat=0 / constrained_intra=0 / bframes=8 / b_pyramid=2 / b_adapt=2 / b_bias=0 / direct=3 / weightb=1 / open_gop=0 / weightp=2 / keyint=250 / keyint_min=24 / scenecut=40 / intra_refresh=0 / rc=crf / mbtree=0 / crf=13.6 / qcomp=0.60 / qpmin=0 / qpmax=69 / qpstep=4 / ip_ratio=1.40 / pb_ratio=1.30 / aq=3:0.85

Language : English

Default : Yes

Forced : No



Audio #1

ID : 2

Format : AC-3

Format/Info : Audio Coding 3

Commercial name : Dolby Digital

Codec ID : A_AC3

Duration : 2 h 4 min

Bit rate mode : Constant

Bit rate : 384 kb/s

Channel(s) : 6 channels

Channel layout : L R C LFE Ls Rs

Sampling rate : 48.0 kHz

Frame rate : 31.250 FPS (1536 SPF)

Bit depth : 16 bits

Compression mode : Lossy

Stream size : 343 MiB (6%)

Title : AC3 5.1 | 384

Language : Ukrainian

Service kind : Complete Main

Default : Yes

Forced : No



Audio #2

ID : 3

Format : AC-3

Format/Info : Audio Coding 3

Commercial name : Dolby Digital

Codec ID : A_AC3

Duration : 2 h 4 min

Bit rate mode : Constant

Bit rate : 640 kb/s

Channel(s) : 6 channels

Channel layout : L R C LFE Ls Rs

Sampling rate : 48.0 kHz

Frame rate : 31.250 FPS (1536 SPF)

Bit depth : 16 bits

Compression mode : Lossy

Stream size : 572 MiB (10%)

Title : AC3 5.1 | 640

Language : Italian

Service kind : Complete Main

Default : No

Forced : No



Text

ID : 4

Format : UTF-8

Codec ID : S_TEXT/UTF8

Codec ID/Info : UTF-8 Plain Text

Duration : 1 h 54 min

Bit rate : 49 b/s

Count of elements : 1298

Stream size : 41.7 KiB (0%)

Language : English

Default : No

Forced : No



Menu

00:00:00.000 : :Chapter 1

00:10:24.000 : :Chapter 2

00:20:41.708 : :Chapter 3

00:31:29.250 : :Chapter 4

00:41:29.958 : :Chapter 5

00:51:46.792 : :Chapter 6

01:01:43.833 : :Chapter 7

01:13:06.500 : :Chapter 8

01:23:58.917 : :Chapter 9

01:33:31.917 : :Chapter 10

01:44:55.667 : :Chapter 11

01:53:57.458 : :Chapter 12Скриншоты

Discussion

Comments 0

Post Your Comment

Files in this torrent

FILENAMESIZE
Pinocchio (2019) BDRip 720p [UKR_ITA] [Hurtom].mkv5.8 GB

Alternative Torrents for 'Pinocchio UKRITA Hurtom'.

There are no alternative torrents found.