Geroj Po Vyzovu 2020 HDTV 1080p R G Generalfilm

Torrent Details


Geroj po vyzovu 2020 HDTV 1080p R G<span style=color:#fc9c6d> Generalfilm</span>

NAME
Geroj po vyzovu 2020 HDTV 1080p R G Generalfilm.torrent
CATEGORY
Television
INFOHASH
adb8f9cc8dc2b82add9a9808ca8a374e8082dc8e
SIZE
4.7 GB in 2 files
ADDED
Uploaded on 16-06-2020 by our crawler pet called "Spidey".
SWARM
0 seeders & 0 peers
RATING
No votes yet.

Please login to vote for this torrent.


Description

Герой по вызову





Информация о фильме

Год выпуска: 2020

Страна: Россия

Жанр: детектив, комедия

Перевод: Не требуется

Продолжительность: ~ 00:46:02

Режиссер: Анна Зайцева

В ролях:





Евгений Миллер (Иван Лутошин), Кристина Асмус (Елизавета Леонова), Николай Клямчук (Илья Туманов), Михаил Евланов (Илья Туманов), Марина Калецкая (Илья Туманов), Владимир Виноградов (Илья Туманов), Константин Тополага (Илья Туманов), Юрий Николаенко (Илья Туманов), Ирина Вербицкая (Илья Туманов), Константин Соловьев (Илья Туманов), Наталья Лесниковская (Илья Туманов), Антон Чечевичкин (продавец в зоомагазине)



Описание:

В центре сюжета – Иван Лутошин, врач-невролог по профессии и неудачник по жизни. Он узнаёт, что у него неоперабельная опухоль мозга и ему осталось жить полгода. Он решает покончить жизнь самоубийством: напившись, выходит на скоростную трассу и встаёт на полосе. Но машина успевает вырулить с дороги. За рулём - оперуполномоченный полиции Туманов: узнав о проблеме случайного знакомого, он предлагает ему поучаствовать в смертельно опасных операциях по поимке бандитов – если убьют, то хотя бы не напрасно.

Спустя некоторое время Лутошин узнаёт, что опухоль замедлила рост. Он делает любопытный вывод: опухоль перестаёт расти, как только возникает реальная угроза жизни, связанная с помощью попавшим в беду людям.

Рейтинг:



Качество: HDTV 1080p

Формат: MKV

Видео: AVC, 1920x1080 (16:9), 7050 kbps, 25 fps, 0,136 bpp

Аудио: AC3 / 2.0 / 48 kHz / 192 kbps /



Релиз от:



ОтчетМедиаИнфо

General

Unique ID : 189732429712099070148430233855880773362 (0x8EBD23040A1C6089B78CFDA0FEAEBEF2)

Complete name : E:Запись с твGeroj po vyzovu 2020 HDTV 1080p.R.G.GeneralfilmGeroj po vyzovu.s01.e02.2020.HDTV.1080p.by.White Smoke.R.G.Generalfilm.mkv

Format : Matroska

Format version : Version 4 / Version 2

File size : 2.32 GiB

Duration : 46 min

Overall bit rate mode : Constant

Overall bit rate : 7 210 kb/s

Movie name : Geroj po vyzovu.s01.e02.2020.HDTV.1080p.by.White Smoke.R.G.Generalfilm.mkv

Encoded date : UTC 2020-06-16 12:40:41

Writing application : mkvmerge v6.8.0 ('Theme for Great Cities') 64bit built on Mar 2 2014 21:34:26

Writing library : libebml v1.3.0 + libmatroska v1.4.1

Cover : Yes

Attachments : cover.jpg



Video

ID : 1

Format : AVC

Format/Info : Advanced Video Codec

Format profile : [email protected]

Format settings, CABAC : Yes

Format settings, ReFrames : 3 frames

Format settings, GOP : M=3, N=33

Codec ID : V_MPEG4/ISO/AVC

Duration : 46 min

Bit rate mode : Constant

Bit rate : 7 051 kb/s

Width : 1 920 pixels

Height : 1 080 pixels

Display aspect ratio : 16:9

Frame rate mode : Constant

Frame rate : 25.000 FPS

Standard : PAL

Color space : YUV

Chroma subsampling : 4:2:0

Bit depth : 8 bits

Scan type : Progressive

Bits/(Pixel*Frame) : 0.136

Stream size : 2.21 GiB (95%)

Default : No

Forced : No

Color range : Limited

Color primaries : BT.709

Transfer characteristics : BT.709

Matrix coefficients : BT.709



Audio

ID : 2

Format : AC-3

Format/Info : Audio Coding 3

Mode extension : CM (complete main)

Format settings, Endianness : Big

Codec ID : A_AC3

Duration : 46 min

Bit rate mode : Constant

Bit rate : 192 kb/s

Channel(s) : 2 channels

Channel positions : Front: L R

Sampling rate : 48.0 kHz

Frame rate : 31.250 FPS (1536 spf)

Compression mode : Lossy

Stream size : 63.2 MiB (3%)

Default : Yes

Forced : No



Скриншоты

Discussion

Comments 0

Post Your Comment

Files in this torrent

FILENAMESIZE
Geroj po vyzovu.s01.e01.2020.HDTV.1080p.by.White Smoke.R.G.Generalfilm.mkv2.4 GB
Geroj po vyzovu.s01.e02.2020.HDTV.1080p.by.White Smoke.R.G.Generalfilm.mkv2.3 GB

Alternative Torrents for 'Geroj po vyzovu'.

TORRENT NAMEADDEDSIZESEEDSPEERSHEALTH
6/29/20206.4 GB20
6/22/20201.7 GB10
11/15/2020627 MB00
11/15/2020631 MB00
11/15/2020655 MB00
11/15/2020619 MB00
8/24/2020648 MB00
8/24/2020619 MB00
6/29/20205.2 GB00
6/29/202019.9 GB00
6/22/20204.8 GB00
6/22/20207.2 GB00
6/18/20203.5 GB00
6/17/20202.6 GB00
6/17/20201.3 GB00