[KORSARS]_Shironeko Project Zero Chronicle [S01] WEBRip 1080p_[StudioBand]

Torrent Details


[KORSARS]_Shironeko Project Zero Chronicle [S01] WEBRip 1080p_[StudioBand]

NAME
[KORSARS]_Shironeko Project Zero Chronicle [S01] WEBRip 1080p_[StudioBand].torrent
CATEGORY
Anime
INFOHASH
af0ac27283727abc3399fd1bf10294a4183250c9
SIZE
5.3 GB in 11 files
ADDED
Uploaded on 16-06-2020 by our crawler pet called "Spidey".
SWARM
0 seeders & 1 peers
RATING
No votes yet.

Please login to vote for this torrent.


Description

Информация о фильме

Название: Проект «Белая Кошка»

Оригинальное название: Shironeko Project: Zero Chronicle

Год выхода: 2020

Жанр: экшен, приключения, фэнтези, магия

Режиссер: Масато Дзимбо

В ролях: Yûki Kaji, Yui Horie



О фильме:

Действия сериала происходят в фэнтезийном мире, полном таинственных рун, которые, согласно легендам, переполнены древней магией. Однако никто не знает, где они находятся. История расскажет об авантюристах, которые пытаются найти эти артефакты. События аниме будут основаны на ивенте «Нулевая хроника: Первый грех», который посвящён третьей годовщине игры. Данный ивент служит краеугольным камнем основной истории. Его события разворачиваются за сотни лет до основной истории, описывая её прошлое. © Shikimori





Страна: Япония

Продолжительность: ~ 00:24:00 (серия)

Перевод: Профессиональный (многоголосый, закадровый) | StudioBand [Wakanim]



Файл

Формат: MKV

Кодек: H.264

Качество: WEBRip 1080p

Видео: 1920x1080, 2 541 kb/s, 23.976 FPS, 8 bits

Аудио (русский): AC-3, ~ 320 kb/s, 2 channels, 48.0 kHz

Субтитры: русские (вшитые на надписи)







Скриншоты







MediaInfo

1-я серия



General

Unique ID : 29278267898143563585748043741685845489 (0x1606CA0EADCE09FC9AD093E378078DF1)

Complete name : [KORSARS]_Shironeko.Project.Zero.Chronicle.[S01E01].WEBRip.1080p_[StudioBand].mkv

Format : Matroska

Format version : Version 4

File size : 493 MiB

Duration : 23 min 36 s

Overall bit rate : 2 919 kb/s

Encoded date : UTC 2020-04-07 14:41:37

Writing application : HandBrake 1.3.1 2020010400

Writing library : Lavf58.29.100

ErrorDetectionType : Per level 1



Video

ID : 1

Format : AVC

Format/Info : Advanced Video Codec

Format profile : [email protected]

Format settings : CABAC / 4 Ref Frames

Format settings, CABAC : Yes

Format settings, Reference : 4 frames

Codec ID : V_MPEG4/ISO/AVC

Duration : 23 min 36 s

Bit rate : 2 541 kb/s

Width : 1 920 pixels

Height : 1 080 pixels

Display aspect ratio : 16:9

Frame rate mode : Constant

Frame rate : 23.976 (24000/1001) FPS

Color space : YUV

Chroma subsampling : 4:2:0

Bit depth : 8 bits

Scan type : Progressive

Bits/(Pixel*Frame) : 0.051

Stream size : 429 MiB (87%)

Writing library : x264 core 157 r2935 545de2f

Encoding settings : cabac=1 / ref=3 / deblock=1:0:0 / analyse=0x1:0x111 / me=hex / subme=7 / psy=1 / psy_rd=1.00:0.00 / mixed_ref=1 / me_range=16 / chroma_me=1 / trellis=1 / 8x8dct=0 / cqm=0 / deadzone=21,11 / fast_pskip=1 / chroma_qp_offset=-2 / threads=9 / lookahead_threads=1 / sliced_threads=0 / nr=0 / decimate=1 / interlaced=0 / bluray_compat=0 / constrained_intra=0 / bframes=3 / b_pyramid=2 / b_adapt=1 / b_bias=0 / direct=1 / weightb=1 / open_gop=0 / weightp=2 / keyint=240 / keyint_min=24 / scenecut=40 / intra_refresh=0 / rc_lookahead=40 / rc=crf / mbtree=1 / crf=20.0 / qcomp=0.60 / qpmin=0 / qpmax=69 / qpstep=4 / vbv_maxrate=20000 / vbv_bufsize=25000 / crf_max=0.0 / nal_hrd=none / filler=0 / ip_ratio=1.40 / aq=1:1.00

Default : Yes

Forced : No

Color range : Limited

Color primaries : BT.709

Transfer characteristics : BT.709

Matrix coefficients : BT.709



Audio

ID : 2

Format : AC-3

Format/Info : Audio Coding 3

Commercial name : Dolby Digital

Codec ID : A_AC3

Duration : 23 min 36 s

Bit rate mode : Constant

Bit rate : 320 kb/s

Channel(s) : 2 channels

Channel layout : L R

Sampling rate : 48.0 kHz

Frame rate : 31.250 FPS (1536 SPF)

Compression mode : Lossy

Delay relative to video : -5 ms

Stream size : 54.1 MiB (11%)

Title : Stereo

Service kind : Complete Main

Default : Yes

Forced : No







2-я серия.



General

Unique ID : 313908914116603557633127977534005384765 (0xEC28A86259FBE316578E2455C103163D)

Complete name : [KORSARS]_Shironeko.Project.Zero.Chronicle.[S01E02].WEBRip.1080p_[StudioBand].mkv

Format : Matroska

Format version : Version 4

File size : 538 MiB

Duration : 23 min 36 s

Overall bit rate : 3 185 kb/s

Encoded date : UTC 2020-04-14 14:33:46

Writing application : HandBrake 1.3.1 2020010400

Writing library : Lavf58.29.100

ErrorDetectionType : Per level 1



Video

ID : 1

Format : AVC

Format/Info : Advanced Video Codec

Format profile : [email protected]

Format settings : CABAC / 4 Ref Frames

Format settings, CABAC : Yes

Format settings, Reference : 4 frames

Codec ID : V_MPEG4/ISO/AVC

Duration : 23 min 36 s

Bit rate : 2 802 kb/s

Width : 1 920 pixels

Height : 1 080 pixels

Display aspect ratio : 16:9

Frame rate mode : Constant

Frame rate : 23.976 (24000/1001) FPS

Color space : YUV

Chroma subsampling : 4:2:0

Bit depth : 8 bits

Scan type : Progressive

Bits/(Pixel*Frame) : 0.056

Stream size : 473 MiB (88%)

Writing library : x264 core 157 r2935 545de2f

Encoding settings : cabac=1 / ref=3 / deblock=1:0:0 / analyse=0x1:0x111 / me=hex / subme=7 / psy=1 / psy_rd=1.00:0.00 / mixed_ref=1 / me_range=16 / chroma_me=1 / trellis=1 / 8x8dct=0 / cqm=0 / deadzone=21,11 / fast_pskip=1 / chroma_qp_offset=-2 / threads=9 / lookahead_threads=1 / sliced_threads=0 / nr=0 / decimate=1 / interlaced=0 / bluray_compat=0 / constrained_intra=0 / bframes=3 / b_pyramid=2 / b_adapt=1 / b_bias=0 / direct=1 / weightb=1 / open_gop=0 / weightp=2 / keyint=240 / keyint_min=24 / scenecut=40 / intra_refresh=0 / rc_lookahead=40 / rc=crf / mbtree=1 / crf=20.0 / qcomp=0.60 / qpmin=0 / qpmax=69 / qpstep=4 / vbv_maxrate=20000 / vbv_bufsize=25000 / crf_max=0.0 / nal_hrd=none / filler=0 / ip_ratio=1.40 / aq=1:1.00

Default : Yes

Forced : No

Color range : Limited

Color primaries : BT.709

Transfer characteristics : BT.709

Matrix coefficients : BT.709



Audio

ID : 2

Format : AC-3

Format/Info : Audio Coding 3

Commercial name : Dolby Digital

Codec ID : A_AC3

Duration : 23 min 36 s

Bit rate mode : Constant

Bit rate : 320 kb/s

Channel(s) : 2 channels

Channel layout : L R

Sampling rate : 48.0 kHz

Frame rate : 31.250 FPS (1536 SPF)

Compression mode : Lossy

Delay relative to video : -5 ms

Stream size : 54.1 MiB (10%)

Title : Stereo

Service kind : Complete Main

Default : Yes

Forced : No







3-я серия



General

Unique ID : 99037558513322301785646565443165287482 (0x4A81F0A0F48643302D289B8E41ACF43A)

Complete name : [KORSARS]_Shironeko.Project.Zero.Chronicle.[S01E03].WEBRip.1080p_[StudioBand].mkv

Format : Matroska

Format version : Version 4

File size : 477 MiB

Duration : 23 min 37 s

Overall bit rate : 2 826 kb/s

Encoded date : UTC 2020-04-21 15:41:04

Writing application : HandBrake 1.3.1 2020010400

Writing library : Lavf58.29.100

ErrorDetectionType : Per level 1



Video

ID : 1

Format : AVC

Format/Info : Advanced Video Codec

Format profile : [email protected]

Format settings : CABAC / 4 Ref Frames

Format settings, CABAC : Yes

Format settings, Reference : 4 frames

Codec ID : V_MPEG4/ISO/AVC

Duration : 23 min 36 s

Bit rate : 2 450 kb/s

Width : 1 920 pixels

Height : 1 080 pixels

Display aspect ratio : 16:9

Frame rate mode : Constant

Frame rate : 23.976 (24000/1001) FPS

Color space : YUV

Chroma subsampling : 4:2:0

Bit depth : 8 bits

Scan type : Progressive

Bits/(Pixel*Frame) : 0.049

Stream size : 414 MiB (87%)

Writing library : x264 core 157 r2935 545de2f

Encoding settings : cabac=1 / ref=3 / deblock=1:0:0 / analyse=0x1:0x111 / me=hex / subme=7 / psy=1 / psy_rd=1.00:0.00 / mixed_ref=1 / me_range=16 / chroma_me=1 / trellis=1 / 8x8dct=0 / cqm=0 / deadzone=21,11 / fast_pskip=1 / chroma_qp_offset=-2 / threads=9 / lookahead_threads=1 / sliced_threads=0 / nr=0 / decimate=1 / interlaced=0 / bluray_compat=0 / constrained_intra=0 / bframes=3 / b_pyramid=2 / b_adapt=1 / b_bias=0 / direct=1 / weightb=1 / open_gop=0 / weightp=2 / keyint=240 / keyint_min=24 / scenecut=40 / intra_refresh=0 / rc_lookahead=40 / rc=crf / mbtree=1 / crf=20.0 / qcomp=0.60 / qpmin=0 / qpmax=69 / qpstep=4 / vbv_maxrate=20000 / vbv_bufsize=25000 / crf_max=0.0 / nal_hrd=none / filler=0 / ip_ratio=1.40 / aq=1:1.00

Default : Yes

Forced : No

Color range : Limited

Color primaries : BT.709

Transfer characteristics : BT.709

Matrix coefficients : BT.709



Audio

ID : 2

Format : AC-3

Format/Info : Audio Coding 3

Commercial name : Dolby Digital

Codec ID : A_AC3

Duration : 23 min 36 s

Bit rate mode : Constant

Bit rate : 320 kb/s

Channel(s) : 2 channels

Channel layout : L R

Sampling rate : 48.0 kHz

Frame rate : 31.250 FPS (1536 SPF)

Compression mode : Lossy

Delay relative to video : -5 ms

Stream size : 54.1 MiB (11%)

Title : Stereo

Service kind : Complete Main

Default : Yes

Forced : No









16.06.2020 обновлено. Добавлена 11-я серия.

Discussion

Comments 0

Post Your Comment

Files in this torrent

FILENAMESIZE
[KORSARS]_Shironeko.Project.Zero.Chronicle.[S01E01].WEBRip.1080p_[StudioBand].mkv493.1 MB
[KORSARS]_Shironeko.Project.Zero.Chronicle.[S01E02].WEBRip.1080p_[StudioBand].mkv538 MB
[KORSARS]_Shironeko.Project.Zero.Chronicle.[S01E03].WEBRip.1080p_[StudioBand].mkv477.4 MB
[KORSARS]_Shironeko.Project.Zero.Chronicle.[S01E04].WEBRip.1080p_[StudioBand].mkv412.3 MB
[KORSARS]_Shironeko.Project.Zero.Chronicle.[S01E05].WEBRip.1080p_[StudioBand].mkv572.7 MB
[KORSARS]_Shironeko.Project.Zero.Chronicle.[S01E06].WEBRip.1080p_[StudioBand].mkv387.4 MB
[KORSARS]_Shironeko.Project.Zero.Chronicle.[S01E07].WEBRip.1080p_[StudioBand].mkv429 MB
[KORSARS]_Shironeko.Project.Zero.Chronicle.[S01E08].WEBRip.1080p_[StudioBand].mkv488.8 MB
[KORSARS]_Shironeko.Project.Zero.Chronicle.[S01E09].WEBRip.1080p_[StudioBand].mkv447.6 MB
[KORSARS]_Shironeko.Project.Zero.Chronicle.[S01E10].WEBRip.1080p_[StudioBand].mkv545.1 MB
[KORSARS]_Shironeko.Project.Zero.Chronicle.[S01E11].WEBRip.1080p_[StudioBand].mkv651.7 MB

Alternative Torrents for 'KORSARSShironeko Project Zero Chronicle S pStudioBand'.

There are no alternative torrents found.