10 Things We Should Do Before We Break Up 2020 1080p BluRay REMUX AVC

Torrent Details

10 Things We Should Do Before We Break Up 2020 1080p BluRay REMUX AVC

NAME
10 Things We Should Do Before We Break Up 2020 1080p BluRay REMUX AVC.torrent
CATEGORY
Movies
INFOHASH
619f7188c27c853810c8ca0ba52d6226499076c3
SIZE
18.7 GB in 1 file
ADDED
Uploaded on 16-06-2020 by our crawler pet called "Spidey".
SWARM
0 seeders & 0 peers
RATING
No votes yet.

Please login to vote for this torrent.


Description

Информация о фильме

Название: 10 свиданий

Оригинальное название: 10 Things We Should Do Before We Break Up

Год выхода: 2020

Жанр: Комедия, мелодрама

Режиссер: Галт Нидерхоффер

В ролях: Кристина Риччи, Хамиш Линклэйтер, Линдси Броад, Миа Синклер Дженнесс, Брэйди Дженнесс, Катя Винтер, Джон Абрахамс, Скотт Эдсит, Кэйтлин Менер, Пенни О’Брайэн





О фильме:

Эбигейл — мать-одиночка, воспитывающая двух подростков. После единственной ночи с Беном она неожиданно забеременела. Теперь они должны решить что с этим делать дальше.











Страна: США

Студия: Signature

Продолжительность: 01:14:03

Перевод:

• Профессиональный (полное дублирование) | IVI





Файл

Качество: BDRemux 1080p

Формат: MKV

Кодек: MPEG-4 AVC

Видео: 1920x1080 (16:9), 23,976 fps, MPEG-4 AVC ~ 33,7 Мbps avg, 0.677 bit/pixel

Аудио: AC3, 48 kHz, 6 ch, ~384.00 kbps avg | русский | IVI

Аудио: DTS-HD MA, 48 kHz, 6 ch, ~2096.00 kbps avg | английский | Оригинал

Субтитры: Английские (Full)





Инфо-файлОбщее

Уникальный идентификатор : 283750544624032204890991441348185101001 (0xD5785DF7D33A2C4F635146D6375D12C9)

Полное имя : 10.Things.We.Should.Do.Before.We.Break.Up.2020.1080p.BluRay.REMUX.AVC.mkv

Формат : Matroska

Версия формата : Version 4

Размер файла : 18,7 Гбайт

Продолжительность : 1 ч. 14 м.

Режим общего битрейта : Переменный

Общий поток : 36,2 Мбит/сек

Название фильма : 10 свиданий / 10 Things We Should Do Before We Break Up (2020)

Дата кодирования : UTC 2020-06-16 15:24:31

Программа кодирования : mkvmerge v47.0.0 ('Black Flag') 64-bit

Библиотека кодирования : libebml v1.3.10 + libmatroska v1.5.2



Видео

Идентификатор : 1

Формат : AVC

Формат/Информация : Advanced Video Codec

Профиль формата : [email protected]

Настройки формата : CABAC / 3 Ref Frames

Параметр CABAC формата : Да

Параметр RefFrames формата : 3 кадра

Идентификатор кодека : V_MPEG4/ISO/AVC

Продолжительность : 1 ч. 14 м.

Вид битрейта : Переменный

Битрейт : 33,7 Мбит/сек

Максимальный битрейт : 35,0 Мбит/сек

Ширина : 1 920 пикселей

Высота : 1 080 пикселей

Соотношение сторон : 16:9

Режим частоты кадров : Постоянный

Частота кадров : 23,976 (24000/1001) кадра/сек

Стандарт вещания : NTSC

Цветовое пространство : YUV

Субдискретизация насыщенности : 4:2:0

Битовая глубина : 8 бит

Тип развёртки : Прогрессивная

Бит/(Пиксели*Кадры) : 0.677

Размер потока : 17,4 Гбайт (93%)

Заголовок : MPEG-4 AVC Video / 33677 kbps / 1080p / 23.976 fps / 16:9 / High Profile 4.1

Библиотека кодирования : x264pro - Adobe CS Exporter Plug-in

Настройки программы : cabac=1 / ref=4 / deblock=1:-2:-2 / analyse=0x3:0x113 / me=umh / subme=9 / psy=1 / psy_rd=1.00:0.25 / mixed_ref=1 / me_range=16 / chroma_me=1 / trellis=1 / 8x8dct=1 / cqm=0 / deadzone=6,6 / fast_pskip=1 / chroma_qp_offset=-4 / threads=16 / lookahead_threads=2 / sliced_threads=0 / slices=4 / nr=0 / decimate=0 / interlaced=0 / bluray_compat=1 / constrained_intra=0 / bframes=3 / b_pyramid=1 / b_adapt=2 / b_bias=0 / direct=3 / weightb=1 / open_gop=0 / weightp=1 / keyint=24 / keyint_min=1 / scenecut=40 / intra_refresh=0 / rc_lookahead=24 / rc=crf / mbtree=1 / crf=1.0 / qcomp=0.80 / qpmin=0 / qpmax=69 / qpstep=4 / vbv_maxrate=35000 / vbv_bufsize=30000 / crf_max=0.0 / nal_hrd=vbr / ip_ratio=1.10 / aq=1:0.50

Язык : English

Default : Да

Forced : Нет

Цветовой диапазон : Limited

Основные цвета : BT.709

Характеристики трансфера : BT.709

Коэффициенты матрицы : BT.709



Аудио #1

Идентификатор : 2

Формат : AC-3

Формат/Информация : Audio Coding 3

Коммерческое название : Dolby Digital

Идентификатор кодека : A_AC3

Продолжительность : 1 ч. 14 м.

Вид битрейта : Постоянный

Битрейт : 384 Кбит/сек

Каналы : 6 каналов

Channel layout : L R C LFE Ls Rs

Частота : 48,0 КГц

Частота кадров : 31,250 кадров/сек (1536 SPF)

Метод сжатия : С потерями

Размер потока : 203 Мбайт (1%)

Заголовок : iTunes

Язык : Russian

Default : Да

Forced : Да



Аудио #2

Идентификатор : 3

Формат : DTS XLL

Формат/Информация : Digital Theater Systems

Коммерческое название : DTS-HD Master Audio

Идентификатор кодека : A_DTS

Продолжительность : 1 ч. 14 м.

Вид битрейта : Переменный

Битрейт : 2 096 Кбит/сек

Каналы : 6 каналов

Channel layout : C L R Ls Rs LFE

Частота : 48,0 КГц

Частота кадров : 93,750 кадра/сек (512 SPF)

Битовая глубина : 16 бит

Метод сжатия : Без потерь

Размер потока : 1,08 Гбайт (6%)

Заголовок : DTS-HD Master Audio / 5.1 / 48 kHz / 2096 kbps / 16-bit

Язык : English

Default : Нет

Forced : Нет



Текст

Идентификатор : 4

Формат : UTF-8

Идентификатор кодека : S_TEXT/UTF8

Идентификатор кодека/Информация : UTF-8 Plain Text

Продолжительность : 1 ч. 9 м.

Битрейт : 63 бит/сек

Count of elements : 1374

Размер потока : 32,3 Кбайт (0%)

Заголовок : Full

Язык : English

Default : Да

Forced : Нет



Меню

00:00:00.000 : en:Chapter 1

00:04:38.236 : en:Chapter 2

00:12:48.476 : en:Chapter 3

00:17:42.478 : en:Chapter 4

00:21:24.950 : en:Chapter 5

00:25:04.002 : en:Chapter 6

00:28:54.191 : en:Chapter 7

00:35:51.024 : en:Chapter 8

00:39:04.717 : en:Chapter 9

00:42:59.911 : en:Chapter 10

00:48:16.143 : en:Chapter 11

00:51:46.353 : en:Chapter 12

00:57:52.969 : en:Chapter 13

01:01:34.941 : en:Chapter 14

01:07:39.013 : en:Chapter 15

01:11:17.857 : en:Chapter 16





Скриншоты

Discussion

Comments 0

Post Your Comment

Files in this torrent

FILENAMESIZE
10.Things.We.Should.Do.Before.We.Break.Up.2020.1080p.BluRay.REMUX.AVC.mkv18.7 GB

Alternative Torrents for 'Things We Should Do Before We Break Up BluRay REMUX AVC'.

TORRENT NAMEADDEDSIZESEEDSPEERSHEALTH
6/16/202018.7 GB00