Artemis Fowl (2020) HDR WEB-DL 2160p

Torrent Details

Artemis Fowl (2020) HDR WEB-DL 2160p
Artemis Fowl (2020) HDR WEB-DL 2160p

NAME
Artemis Fowl (2020) HDR WEB-DL 2160p.torrent
CATEGORY
Movies
INFOHASH
9812cd24e460095e1086be4b74be5755d149267c
SIZE
11.4 GB in 1 file
ADDED
Uploaded on 16-06-2020 by our crawler pet called "Spidey".
SWARM
0 seeders & 0 peers
RATING
No votes yet.

Please login to vote for this torrent.


Description

Информация о фильме

Название: Артемис Фаул

Оригинальное название: Artemis Fowl

Год выхода: 2020

Жанр: Фантастика, фэнтези, приключения, семейный





Режиссер: Кеннет Брана





В ролях: Майкл Раус, Рэйчил Офори, Джош Гад, Фердия Шоу, Симона Кирби, Джо О Гради, Финиан Дафф Леннон, Грейс Финхем, Тоби Эден, Джерард Хоран





О фильме:

Укрытый от посторонних глаз глубоко под поверхностью земной коры таится целый мир, населенный гномами, эльфами, пикси, лепреконами, брауни и другими волшебными существами. Они спрятались от людей и создали свою цивилизацию. Их тайна так и оставалась бы нераскрытой, если бы не юный Артемис Фаул — прирожденный мошенник и единственный наследник древнего рода криминальных гениев. Он сумел не только найти доказательства существования подземного мира, но и придумал дерзкий план, как ограбить его обитателей.











Страна: США

Продолжительность: 01:34:21

Перевод: Профессиональный (многоголосый закадровый) | HDrezka Studio





Файл

Кодек: H.265

Качество: WEB-DL 2160p

Видео: MPEG-H HEVC, HDR, 3840x2160 (16:9), 23.976 fps, 16.4 Mb/s

Аудио 1: AC3, 48.0 kHz, 6 ch, 448 kb/s | RUS

Аудио 2: AC3, 48.0 kHz, 6 ch, 448 kb/s | ENG

Субтитры: Русские (Forced), английские, испанские, французские, немецкие, польские, итальянские, португальские





MIGeneral

Unique ID : 230775072216302410278617111960378758993 (0xAD9DA985EF9A39C89DA7834CF1DD5751)

Complete name : Artemis.Fowl.(2020).HDR.WEB-DL.2160p.mkv

Format : Matroska

Format version : Version 4

File size : 11.4 GiB

Duration : 1 h 34 min

Overall bit rate : 17.3 Mb/s

Encoded date : UTC 2020-06-16 16:40:22

Writing application : mkvmerge v8.3.0 ('Over the Horizon') 64bit

Writing library : libebml v1.3.1 + libmatroska v1.4.2



Video

ID : 1

Format : HEVC

Format/Info : High Efficiency Video Coding

Commercial name : HDR10

Format profile : Main [email protected]@High

Codec ID : V_MPEGH/ISO/HEVC

Duration : 1 h 34 min

Bit rate : 16.4 Mb/s

Width : 3 840 pixels

Height : 2 160 pixels

Display aspect ratio : 16:9

Frame rate mode : Constant

Frame rate : 23.976 (24000/1001) FPS

Color space : YUV

Chroma subsampling : 4:2:0

Bit depth : 10 bits

Bits/(Pixel*Frame) : 0.083

Stream size : 10.8 GiB (95%)

Default : Yes

Forced : No

Color range : Limited

Color primaries : BT.2020

Transfer characteristics : PQ

Matrix coefficients : BT.2020 non-constant

Mastering display color primaries : Display P3

Mastering display luminance : min: 0.0000 cd/m2, max: 1000 cd/m2



Audio #1

ID : 2

Format : AC-3

Format/Info : Audio Coding 3

Commercial name : Dolby Digital

Codec ID : A_AC3

Duration : 1 h 34 min

Bit rate mode : Constant

Bit rate : 448 kb/s

Channel(s) : 6 channels

Channel layout : L R C LFE Ls Rs

Sampling rate : 48.0 kHz

Frame rate : 31.250 FPS (1536 SPF)

Bit depth : 16 bits

Compression mode : Lossy

Stream size : 302 MiB (3%)

Title : MVO | HDRezka Studio

Language : Russian

Service kind : Complete Main

Default : Yes

Forced : No



Audio #2

ID : 3

Format : AC-3

Format/Info : Audio Coding 3

Commercial name : Dolby Digital

Codec ID : A_AC3

Duration : 1 h 34 min

Bit rate mode : Constant

Bit rate : 448 kb/s

Channel(s) : 6 channels

Channel layout : L R C LFE Ls Rs

Sampling rate : 48.0 kHz

Frame rate : 31.250 FPS (1536 SPF)

Bit depth : 16 bits

Compression mode : Lossy

Stream size : 302 MiB (3%)

Language : English

Service kind : Complete Main

Default : No

Forced : No



Text #1

ID : 4

Format : UTF-8

Codec ID : S_TEXT/UTF8

Codec ID/Info : UTF-8 Plain Text

Duration : 57 min 15 s

Bit rate : 3 b/s

Count of elements : 33

Stream size : 1.67 KiB (0%)

Title : Forced

Language : Russian

Default : Yes

Forced : Yes



Text #2

ID : 5

Format : UTF-8

Codec ID : S_TEXT/UTF8

Codec ID/Info : UTF-8 Plain Text

Duration : 1 h 27 min

Bit rate : 63 b/s

Count of elements : 1515

Stream size : 40.7 KiB (0%)

Language : English

Default : No

Forced : No



Text #3

ID : 6

Format : UTF-8

Codec ID : S_TEXT/UTF8

Codec ID/Info : UTF-8 Plain Text

Duration : 1 h 33 min

Bit rate : 56 b/s

Count of elements : 1050

Stream size : 38.4 KiB (0%)

Language : Dutch

Default : No

Forced : No



Text #4

ID : 7

Format : UTF-8

Codec ID : S_TEXT/UTF8

Codec ID/Info : UTF-8 Plain Text

Duration : 1 h 33 min

Bit rate : 54 b/s

Count of elements : 1270

Stream size : 37.6 KiB (0%)

Language : French

Default : No

Forced : No



Text #5

ID : 8

Format : UTF-8

Codec ID : S_TEXT/UTF8

Codec ID/Info : UTF-8 Plain Text

Duration : 1 h 33 min

Bit rate : 58 b/s

Count of elements : 1414

Stream size : 40.1 KiB (0%)

Language : German

Default : No

Forced : No



Text #6

ID : 9

Format : UTF-8

Codec ID : S_TEXT/UTF8

Codec ID/Info : UTF-8 Plain Text

Duration : 1 h 33 min

Bit rate : 57 b/s

Count of elements : 1360

Stream size : 39.6 KiB (0%)

Language : Italian

Default : No

Forced : No



Text #7

ID : 10

Format : UTF-8

Codec ID : S_TEXT/UTF8

Codec ID/Info : UTF-8 Plain Text

Duration : 1 h 33 min

Bit rate : 52 b/s

Count of elements : 1303

Stream size : 35.9 KiB (0%)

Language : Polish

Default : No

Forced : No



Text #8

ID : 11

Format : UTF-8

Codec ID : S_TEXT/UTF8

Codec ID/Info : UTF-8 Plain Text

Duration : 1 h 33 min

Bit rate : 59 b/s

Count of elements : 1343

Stream size : 41.0 KiB (0%)

Language : Portuguese

Default : No

Forced : No



Text #9

ID : 12

Format : UTF-8

Codec ID : S_TEXT/UTF8

Codec ID/Info : UTF-8 Plain Text

Duration : 1 h 33 min

Bit rate : 60 b/s

Count of elements : 1361

Stream size : 41.4 KiB (0%)

Language : Portuguese

Default : No

Forced : No



Text #10

ID : 13

Format : UTF-8

Codec ID : S_TEXT/UTF8

Codec ID/Info : UTF-8 Plain Text

Duration : 1 h 27 min

Bit rate : 68 b/s

Count of elements : 1364

Stream size : 43.6 KiB (0%)

Language : Spanish

Default : No

Forced : No



Text #11

ID : 14

Format : UTF-8

Codec ID : S_TEXT/UTF8

Codec ID/Info : UTF-8 Plain Text

Duration : 1 h 33 min

Bit rate : 59 b/s

Count of elements : 1362

Stream size : 40.7 KiB (0%)

Title : European

Language : Spanish

Default : No

Forced : NoСкриншоты

Discussion

Comments 0

Post Your Comment

Files in this torrent

FILENAMESIZE
Artemis.Fowl.(2020).HDR.WEB-DL.2160p.mkv11.4 GB

Alternative Torrents for 'Artemis Fowl HDR'.

TORRENT NAMEADDEDSIZESEEDSPEERSHEALTH
7/7/202011 GB00
7/7/202011.3 GB00
6/16/202011.4 GB00
6/13/20206.6 GB00
6/12/202011 GB00