The Great War Of Archimedes 2019 HDRip AVC Enigma ExKinoRay

Torrent Details

The Great War of Archimedes 2019 HDRip AVC Enigma<span style=color:#fc9c6d> ExKinoRay</span>

NAME
The Great War of Archimedes 2019 HDRip AVC Enigma ExKinoRay.torrent
CATEGORY
Movies
INFOHASH
65b18347fb4a6ee92f0d9f574ce972bc2ab8f21c
SIZE
1.5 GB in 1 file
ADDED
Uploaded on 16-06-2020 by our crawler pet called "Spidey".
SWARM
0 seeders & 0 peers
RATING
No votes yet.

Please login to vote for this torrent.


Description

Название: Великая война Архимеда

Оригинальное название: Archimedes no Taisen (The Great War of Archimedes)

Год выпуска: 2019

Жанр: История, драма, детектив, военный

Выпущено: Япония, Abe Shuji, Asahi Shimbunsha, Culture Entertainment, Dentsu, Gyao

Режиссер: Такаси Ямадзаки

В ролях: Дзюн Кунимура, Минами Хамабэ, Масаки Суда, Мин Танака, Фумиё Кохината, Тасуку Эмото, Кацуя Кобаяси, Хироси Тати, Исао Хасидзумэ, Хоси Исида





Описание: 30-е годы, Японская империя. В штабе Императорского флота решают построить крупнейший в мире авианосец — Ямато. Контр-адмирал Исороку Ямамото выступает против этого решения и привлекает к делу гениального математика Тадаси Каи. С его помощью Исороку обнаруживает расхождения, связанные с расчетной стоимостью строительства Ямато, и понимает — в армии заговор.









Страна: Япония

Студия: Abe Shuji, Asahi Shimbunsha, Culture Entertainment, Dentsu, Gyao

Продолжительность: 02:09:44

Перевод: Субтитры





Формат: MKV

Качество: HDRip-AVC

Видео: MPEG-4 AVC, 720x302 (1.85:1), 23.976 fps, 1154 Kbps, 0.221 bit/pixel

Аудио : 48 kHz, AC3, 5.1, 448 Kbps | Оригинал | JAP

Субтитры: Русские (Наталья Раевская (Enigma))



ОтчетМедиаИнфо

General

Unique ID : 240174259982653062677017797896333874072 (0xB4AFE14240511513A544D1AD9BEED398)

Complete name : F:The.Great.War.of.Archimedes.2019.HDRip.AVC.Enigma.ExKinoRay.mkv

Format : Matroska

Format version : Version 2

File size : 1.45 GiB

Duration : 2 h 9 min

Overall bit rate : 1 602 kb/s

Movie name : The Great War of Archimedes 2019 from ExKinoRay

Encoded date : UTC 2020-06-16 15:26:08

Writing application : mkvmerge v5.6.0 ('Kenya Kane') built on May 27 2012 16:44:04

Writing library : libebml v1.2.3 + libmatroska v1.3.0

Attachments : 360.jpg



Video

ID : 1

Format : AVC

Format/Info : Advanced Video Codec

Format profile : [email protected]

Format settings, CABAC : Yes

Format settings, ReFrames : 11 frames

Codec ID : V_MPEG4/ISO/AVC

Duration : 2 h 9 min

Bit rate : 1 154 kb/s

Width : 720 pixels

Height : 302 pixels

Display aspect ratio : 2.40:1

Frame rate mode : Constant

Frame rate : 23.976 (24000/1001) FPS

Original frame rate : 23.976 (23976/1000) FPS

Color space : YUV

Chroma subsampling : 4:2:0

Bit depth : 8 bits

Scan type : Progressive

Bits/(Pixel*Frame) : 0.221

Stream size : 1.02 GiB (70%)

Title : Enigma

Writing library : x264 core 152 r2851 ba24899

Encoding settings : cabac=1 / ref=11 / deblock=1:-2:-2 / analyse=0x3:0x113 / me=umh / subme=10 / psy=1 / psy_rd=1.05:0.08 / mixed_ref=1 / me_range=32 / chroma_me=1 / trellis=2 / 8x8dct=1 / cqm=0 / deadzone=21,11 / fast_pskip=0 / chroma_qp_offset=-3 / threads=9 / lookahead_threads=1 / sliced_threads=0 / nr=0 / decimate=0 / interlaced=0 / bluray_compat=0 / constrained_intra=0 / bframes=9 / b_pyramid=2 / b_adapt=2 / b_bias=0 / direct=3 / weightb=1 / open_gop=0 / weightp=2 / keyint=240 / keyint_min=23 / scenecut=40 / intra_refresh=0 / rc=2pass / mbtree=0 / bitrate=1154 / ratetol=1.0 / qcomp=0.60 / qpmin=0 / qpmax=51 / qpstep=4 / cplxblur=20.0 / qblur=0.5 / ip_ratio=1.40 / pb_ratio=1.30 / aq=2:0.80

Default : Yes

Forced : No

Color range : Limited

Color primaries : BT.709

Transfer characteristics : BT.709

Matrix coefficients : BT.709



Audio

ID : 2

Format : AC-3

Format/Info : Audio Coding 3

Mode extension : CM (complete main)

Format settings, Endianness : Big

Codec ID : A_AC3

Duration : 2 h 9 min

Bit rate mode : Constant

Bit rate : 448 kb/s

Channel(s) : 6 channels

Channel positions : Front: L C R, Side: L R, LFE

Sampling rate : 48.0 kHz

Frame rate : 31.250 FPS (1536 spf)

Compression mode : Lossy

Stream size : 416 MiB (28%)

Language : Japanese

Default : Yes

Forced : No



















Релиз от:



Автор релиза:

Discussion

Comments 0

Post Your Comment

Files in this torrent

FILENAMESIZE
The.Great.War.of.Archimedes.2019.HDRip.AVC.Enigma.ExKinoRay.mkv1.5 GB

Alternative Torrents for 'Great War of Archimedes AVC Enigma'.

TORRENT NAMEADDEDSIZESEEDSPEERSHEALTH
6/16/20201.5 GB00