Подъем с глубины - Deep Rising (1998) BDRip-HEVC 1080p - KORSAR

Torrent Details

Подъем с глубины - Deep Rising (1998) BDRip-HEVC 1080p - KORSAR

NAME
Подъем с глубины - Deep Rising (1998) BDRip-HEVC 1080p - KORSAR.torrent
CATEGORY
Movies
INFOHASH
c87279c1224f11051db8d2387406987000f5808a
SIZE
9.4 GB in 0 files
ADDED
Uploaded on 16-06-2020 by our crawler pet called "Spidey".
SWARM
0 seeders & 0 peers
RATING
No votes yet.

Please login to vote for this torrent.


Description

Информация о фильме

Название: Подъем с глубины

Оригинальное название: Deep Rising

Год выхода: 1998

Жанр: ужасы, фантастика, боевик, приключения

Режиссер: Стивен Соммерс

В ролях: Трит Уильямс, Фамке Янссен, Энтони Хилд, Кевин Дж. О’Коннор,Уэс Студи, Деррик О’Коннор, Джейсон Флеминг, Клифф Кёртис, Клифтон Пауэлл, Тревор Годдар



О фильме:

Банда наемников отправляется на перехват океанского пассажирского лайнера с целью захвата драгоценностей и денег. Вооруженные до зубов, они рассчитывают на успех этой тщательно спланированной операции. Но боевая уверенность захватчиков сменяется ужасом перед небывалыми чудовищами, устроившими пир на корабле! У этих монстров здесь не было противников! И кровь тысяч людей не смогла утолить их жажду!







Страна: США, Канада

Студия: Hollywood Pictures, Cinergi Pictures Entertainment Inc., Calimari Productions

Продолжительность: 01:46:08

Перевод: Профессиональный (многоголосый, двухголосый), авторский, любительский одноголосый



Файл

Качество: BDRip-HEVC 1080p

Формат: MKV

Видео: HEVC, 1920x820, 9407 Кбит/с, 23.976 кадр/с, 10 бит

Звук:

Аудио1: Русская, AC3 192 Кбит/с, 2 канала(ов) MVO (ОРТ)

Аудио2: Русская, AC3 384 Кбит/с, 6 канала(ов) DVO (West / R5)

Аудио3: Русская, AC3 192 Кбит/с, 2 канала(ов) DVO (НТВ+)

Аудио4: Русская, AC3 640 Кбит/с, 6 канала(ов) AVO (Гаврилов)

Аудио5: Русская, AC3 384 Кбит/с, 6 канала(ов) AVO (Живов)

Аудио6: Русская, AC3 640 Кбит/с, 6 канала(ов) VO (Переводман)

Аудио7: Украинская, AC3 192 Кбит/с, 2 канала(ов) MVO (ICTV)

Аудио8: English, AC3 640 Кбит/с, 6 канала(ов) Original

Субтитры: Русские, английские

Навигация по главам: Есть



Mediainfox265 [info]: frame I: 1657, Avg QP:18.15 kb/s: 18362.14

x265 [info]: frame P: 27650, Avg QP:19.54 kb/s: 16100.30

x265 [info]: frame B: 123381, Avg QP:21.77 kb/s: 7786.17

x265 [info]: consecutive B-frames: 8.1% 1.7% 3.9% 19.3% 14.6% 38.4% 5.6% 2.9% 1.2% 0.7% 0.2%



General

Unique ID : 40408003535338224200473801690076844612 (0x1E664C63F3F5FAEBEDB95ED433229244)

Complete name : S:HEVC2Подъем с глубины - Deep Rising (1998) BDRip-HEVC 1080p - KORSAR.mkv

Format : Matroska

Format version : Version 4 / Version 2

File size : 9.40 GiB

Duration : 1 h 46 min

Overall bit rate : 12.7 Mb/s

Movie name : Deep Rising (1998)_rip_by_Cthulhu

Encoded date : UTC 2020-06-03 18:39:45

Writing application : mkvmerge v46.0.0 ('No Deeper Escape') 64-bit

Writing library : libebml v1.3.10 + libmatroska v1.5.2

Cover : Yes

Attachments : cover2.jpg



Video

ID : 1

Format : HEVC

Format/Info : High Efficiency Video Coding

Format profile : Main [email protected]@High

Codec ID : V_MPEGH/ISO/HEVC

Duration : 1 h 46 min

Bit rate : 9 407 kb/s

Width : 1 920 pixels

Height : 820 pixels

Display aspect ratio : 2.35:1

Frame rate mode : Constant

Frame rate : 23.976 (24000/1001) FPS

Color space : YUV

Chroma subsampling : 4:2:0

Bit depth : 10 bits

Bits/(Pixel*Frame) : 0.249

Stream size : 6.97 GiB (74%)

Writing library : x265 3.3+2-gbe2d82093:[Windows][GCC 10.0.1][64 bit] 10bit

Encoding settings : cpuid=1111039 / frame-threads=4 / numa-pools=16 / wpp / no-pmode / no-pme / no-psnr / no-ssim / log-level=2 / input-csp=1 / input-res=1920x820 / interlace=0 / total-frames=152688 / level-idc=41 / high-tier=1 / uhd-bd=0 / ref=5 / no-allow-non-conformance / no-repeat-headers / annexb / no-aud / no-hrd / info / hash=0 / no-temporal-layers / open-gop / min-keyint=24 / keyint=240 / gop-lookahead=0 / bframes=10 / b-adapt=2 / b-pyramid / bframe-bias=0 / rc-lookahead=60 / lookahead-slices=1 / scenecut=40 / hist-scenecut=0 / radl=0 / no-splice / no-intra-refresh / ctu=32 / min-cu-size=8 / rect / amp / max-tu-size=32 / tu-inter-depth=4 / tu-intra-depth=4 / limit-tu=1 / rdoq-level=2 / dynamic-rd=0.00 / no-ssim-rd / signhide / no-tskip / nr-intra=0 / nr-inter=0 / no-constrained-intra / no-strong-intra-smoothing / max-merge=5 / limit-refs=3 / limit-modes / me=3 / subme=7 / merange=57 / temporal-mvp / no-frame-dup / hme / Level / merange / L0,L1,L2=16,32,57 / weightp / weightb / no-analyze-src-pics / deblock=-2:-2 / no-sao / no-sao-non-deblock / rd=6 / selective-sao=0 / no-early-skip / rskip / rskip-edge-threshold=0.050000 / no-fast-intra / no-tskip-fast / no-cu-lossless / b-intra / no-splitrd-skip / rdpenalty=0 / psy-rd=2.00 / psy-rdoq=1.00 / no-rd-refine / no-lossless / cbqpoffs=0 / crqpoffs=0 / rc=crf / crf=20.5 / qcomp=0.63 / qpstep=4 / stats-write=0 / stats-read=0 / vbv-maxrate=50000 / vbv-bufsize=50000 / vbv-init=0.9 / crf-max=0.0 / crf-min=0.0 / ipratio=1.40 / pbratio=1.30 / aq-mode=1 / aq-strength=1.00 / no-cutree / zone-count=1 / zones: / start-frame=141657 / end-frame=152688 / qp=35 / no-strict-cbr / qg-size=32 / no-rc-grain / qpmax=69 / qpmin=0 / no-const-vbv / sar=1 / overscan=0 / videoformat=5 / range=0 / colorprim=1 / transfer=1 / colormatrix=1 / chromaloc=0 / display-window=0 / cll=0,0 / min-luma=0 / max-luma=1023 / log2-max-poc-lsb=8 / vui-timing-info / vui-hrd-info / slices=1 / no-opt-qp-pps / no-opt-ref-list-length-pps / no-multi-pass-opt-rps / scenecut-bias=0.05 / hist-threshold=0.01 / no-opt-cu-delta-qp / no-aq-motion / no-hdr10 / no-hdr10-opt / no-dhdr10-opt / no-idr-recovery-sei / analysis-reuse-level=0 / analysis-save-reuse-level=0 / analysis-load-reuse-level=0 / scale-factor=0 / refine-intra=0 / refine-inter=0 / refine-mv=1 / refine-ctu-distortion=0 / no-limit-sao / ctu-info=0 / no-lowpass-dct / refine-analysis-type=0 / copy-pic=1 / max-ausize-factor=1.0 / no-dynamic-refine / no-single-sei / no-hevc-aq / no-svt / no-field / qp-adaptation-range=1.00 / no-scenecut-aware-qpconformance-window-offsets / right=0 / bottom=0

Language : English

Default : Yes

Forced : No

Color range : Limited

Color primaries : BT.709

Transfer characteristics : BT.709

Matrix coefficients : BT.709



Audio #1

ID : 2

Format : AC-3

Format/Info : Audio Coding 3

Commercial name : Dolby Digital

Codec ID : A_AC3

Duration : 1 h 46 min

Bit rate mode : Constant

Bit rate : 192 kb/s

Channel(s) : 2 channels

Channel layout : L R

Sampling rate : 48.0 kHz

Frame rate : 31.250 FPS (1536 SPF)

Bit depth : 16 bits

Compression mode : Lossy

Stream size : 146 MiB (2%)

Title : MVO (ОРТ)

Language : Russian

Service kind : Complete Main

Default : Yes

Forced : No



Audio #2

ID : 3

Format : AC-3

Format/Info : Audio Coding 3

Commercial name : Dolby Digital

Codec ID : A_AC3

Duration : 1 h 46 min

Bit rate mode : Constant

Bit rate : 384 kb/s

Channel(s) : 6 channels

Channel layout : L R C LFE Ls Rs

Sampling rate : 48.0 kHz

Frame rate : 31.250 FPS (1536 SPF)

Bit depth : 16 bits

Compression mode : Lossy

Stream size : 291 MiB (3%)

Title : DVO (West / R5)

Language : Russian

Service kind : Complete Main

Default : No

Forced : No



Audio #3

ID : 4

Format : AC-3

Format/Info : Audio Coding 3

Commercial name : Dolby Digital

Codec ID : A_AC3

Duration : 1 h 46 min

Bit rate mode : Constant

Bit rate : 192 kb/s

Channel(s) : 2 channels

Channel layout : L R

Sampling rate : 48.0 kHz

Frame rate : 31.250 FPS (1536 SPF)

Bit depth : 16 bits

Compression mode : Lossy

Stream size : 146 MiB (2%)

Title : DVO (НТВ+)

Language : Russian

Service kind : Complete Main

Default : No

Forced : No



Audio #4

ID : 5

Format : AC-3

Format/Info : Audio Coding 3

Commercial name : Dolby Digital

Codec ID : A_AC3

Duration : 1 h 46 min

Bit rate mode : Constant

Bit rate : 640 kb/s

Channel(s) : 6 channels

Channel layout : L R C LFE Ls Rs

Sampling rate : 48.0 kHz

Frame rate : 31.250 FPS (1536 SPF)

Bit depth : 16 bits

Compression mode : Lossy

Stream size : 486 MiB (5%)

Title : AVO (Гаврилов)

Language : Russian

Service kind : Complete Main

Default : No

Forced : No



Audio #5

ID : 6

Format : AC-3

Format/Info : Audio Coding 3

Commercial name : Dolby Digital

Codec ID : A_AC3

Duration : 1 h 46 min

Bit rate mode : Constant

Bit rate : 384 kb/s

Channel(s) : 6 channels

Channel layout : L R C LFE Ls Rs

Sampling rate : 48.0 kHz

Frame rate : 31.250 FPS (1536 SPF)

Bit depth : 16 bits

Compression mode : Lossy

Stream size : 291 MiB (3%)

Title : AVO (Живов)

Language : Russian

Service kind : Complete Main

Default : No

Forced : No



Audio #6

ID : 7

Format : AC-3

Format/Info : Audio Coding 3

Commercial name : Dolby Digital

Codec ID : A_AC3

Duration : 1 h 46 min

Bit rate mode : Constant

Bit rate : 640 kb/s

Channel(s) : 6 channels

Channel layout : L R C LFE Ls Rs

Sampling rate : 48.0 kHz

Frame rate : 31.250 FPS (1536 SPF)

Bit depth : 16 bits

Compression mode : Lossy

Stream size : 486 MiB (5%)

Title : VO (Переводман)

Language : Russian

Service kind : Complete Main

Default : No

Forced : No



Audio #7

ID : 8

Format : AC-3

Format/Info : Audio Coding 3

Commercial name : Dolby Digital

Codec ID : A_AC3

Duration : 1 h 46 min

Bit rate mode : Constant

Bit rate : 192 kb/s

Channel(s) : 2 channels

Channel layout : L R

Sampling rate : 48.0 kHz

Frame rate : 31.250 FPS (1536 SPF)

Bit depth : 16 bits

Compression mode : Lossy

Stream size : 146 MiB (2%)

Title : MVO (ICTV)

Language : Ukrainian

Service kind : Complete Main

Default : No

Forced : No



Audio #8

ID : 9

Format : AC-3

Format/Info : Audio Coding 3

Commercial name : Dolby Digital

Codec ID : A_AC3

Duration : 1 h 46 min

Bit rate mode : Constant

Bit rate : 640 kb/s

Channel(s) : 6 channels

Channel layout : L R C LFE Ls Rs

Sampling rate : 48.0 kHz

Frame rate : 31.250 FPS (1536 SPF)

Bit depth : 16 bits

Compression mode : Lossy

Stream size : 486 MiB (5%)

Language : English

Service kind : Complete Main

Default : No

Forced : No



Text #1

ID : 10

Format : UTF-8

Codec ID : S_TEXT/UTF8

Codec ID/Info : UTF-8 Plain Text

Duration : 1 h 38 min

Bit rate : 75 b/s

Count of elements : 863

Stream size : 54.3 KiB (0%)

Language : Russian

Default : No

Forced : No



Text #2

ID : 11

Format : UTF-8

Codec ID : S_TEXT/UTF8

Codec ID/Info : UTF-8 Plain Text

Duration : 1 h 36 min

Bit rate : 46 b/s

Count of elements : 1063

Stream size : 32.7 KiB (0%)

Language : English

Default : No

Forced : No



Menu

00:00:00.000 : en:00:00:00.000

00:08:57.412 : en:00:08:57.412

00:17:29.423 : en:00:17:29.423

00:26:46.188 : en:00:26:46.188

00:37:03.888 : en:00:37:03.888

00:45:13.544 : en:00:45:13.544

00:56:11.326 : en:00:56:11.326

01:06:52.175 : en:01:06:52.175

01:17:26.433 : en:01:17:26.433

01:25:07.978 : en:01:25:07.978

01:31:15.470 : en:01:31:15.470

01:38:28.236 : en:01:38:28.236Скриншоты





Релиз от: Cthulhu

Discussion

Comments 0

Post Your Comment

Torrent Files (Unavailable)

Please check back later to get a list of all files included in this torrent.

Alternative Torrents for 'Подъем с глубины Deep Rising HEVC KORSAR'.

TORRENT NAMEADDEDSIZESEEDSPEERSHEALTH
6/16/20209.4 GB00