De Dag (Season 1) WEB-DLRip

Torrent Details

De Dag (Season 1) WEB-DLRip

NAME
De Dag (Season 1) WEB-DLRip.torrent
CATEGORY
Television
INFOHASH
c60b764b2050276f2c4020bfb6209b3015bb927a
SIZE
7 GB in 12 files
ADDED
Uploaded on 16-06-2020 by our crawler pet called "Spidey".
SWARM
2 seeders & 0 peers
RATING
No votes yet.

Please login to vote for this torrent.


Description

Информация о фильме

Название: День

Оригинальное название: De Dag

Год выхода: 2018

Жанр: боевик, триллер, драма, криминал

Режиссер: Жиль Кулье, Дрис Вос

В ролях: Джероен Персеваль, Льеса Ван Дер Аа, Софи Декле, Долорес Букэерт, Лукас Де Вульф, Титус Де Вогдт, Йохан ван Ассхе, Вилли Томас, Мишель Баувенс, Зузу Бен Чиха



О фильме: В одном из банков бандиты захватывают как минимум шестерых заложников. Полиция оцепила периметр, но понять, что же на самом деле происходит в здании, и есть ли пострадавшие, до сих пор невозможно. Инспектор Тхоге пытается взять ситуацию под свой контроль. Для успешного исхода освободительной операции нужны умелые и психически уравновешенные переговорщики, но их днем с огнем не сыскать.



Полиция готова пойти на крайние меры, чтобы найти квалифицированных и вменяемых специалистов. В это же время ушлые работники СМИ пытаются снимать материал в запрещенном месте. Теперь приходится сражаться и с их назойливым вниманием, ведь бандиты четко заявили о своих требованиях: никаких журналистов и полицейских рядом со зданием. Чтобы спасти людей, у руководителей операции есть всего час на сбор денег для выкупа. В противном случае кто-то из заложников лишится жизни.







Страна: Бельгия

Студия: Dynamic Television, FBO

Продолжительность: ~00:42:00 серия

Перевод: Профессиональный (многоголосый, закадровый) видеосервис START



Файл

Качество: WEBRip

Формат: AVI

Видео: 704x320 at 25.000 fps, XviD, ~1600 kbps avg

Аудио: Russian: 48 kHz, AC3, 2/0 (L,R) ch, ~192 kbps avg |Многоголосый закадровый, видеосервис START|

Субтитры: None



***Примечание: Без рекламы

***Релиз: Wentworth_Miller



MediaInfoОбщее

Полное имя : De.Dag.S01E01.WEB-DLRip.RGzsRutrаckеr.[Wentworth_Miller].avi

Формат : AVI

Формат/Информация : Audio Video Interleave

Размер файла : 517 Мбайт

Продолжительность : 40 м. 7 с.

Общий поток : 1 802 Кбит/сек

Программа кодирования : VirtualDubMod 1.5.10.3 | www.virtualdub-fr.org || (build 2550/release)

Библиотека кодирования : VirtualDubMod build 2550/release



Видео

Идентификатор : 0

Формат : MPEG-4 Visual

Профиль формата : Advanced [email protected]

Настройки формата : BVOP1

Параметр BVOP формата : 1

Параметр QPel формата : Нет

Параметр GMC формата : Без точки перехода

Параметр матрицы формата : Default (MPEG)

Идентификатор кодека : XVID

Идентификатор кодека/Подсказка : XviD

Продолжительность : 40 м. 7 с.

Битрейт : 1 600 Кбит/сек

Ширина : 704 пикселя

Высота : 320 пикселей

Соотношение сторон : 2,2:1

Частота кадров : 25,000 кадров/сек

Цветовое пространство : YUV

Субдискретизация насыщенности : 4:2:0

Битовая глубина : 8 бит

Тип развёртки : Прогрессивная

Метод сжатия : С потерями

Бит/(Пиксели*Кадры) : 0.284

Размер потока : 459 Мбайт (89%)

Библиотека кодирования : XviD 67



Аудио

Идентификатор : 1

Формат : AC-3

Формат/Информация : Audio Coding 3

Коммерческое название : Dolby Digital

Идентификатор кодека : 2000

Продолжительность : 40 м. 7 с.

Вид битрейта : Постоянный

Битрейт : 192 Кбит/сек

Каналы : 2 канала

Channel layout : L R

Частота : 48,0 КГц

Частота кадров : 31,250 кадров/сек (1536 SPF)

Метод сжатия : С потерями

Размер потока : 55,1 Мбайт (11%)

Выравнивание : Разделение по промежуткам

Продолжительность промежутка : 40 мс. (1,00 видеокадр)

Время предзагрузки промежутка : 500 мс.

Service kind : Complete MainСкриншоты

Discussion

Comments 0

Post Your Comment

Files in this torrent

FILENAMESIZE
De.Dag.S01E01.WEB-DLRip.RGzsRutracker.[Wentworth_Miller].avi517 MB
De.Dag.S01E02.WEB-DLRip.RGzsRutracker.[Wentworth_Miller].avi541.9 MB
De.Dag.S01E03.WEB-DLRip.RGzsRutracker.[Wentworth_Miller].avi608.6 MB
De.Dag.S01E04.WEB-DLRip.RGzsRutracker.[Wentworth_Miller].avi556.2 MB
De.Dag.S01E05.WEB-DLRip.RGzsRutracker.[Wentworth_Miller].avi561.6 MB
De.Dag.S01E06.WEB-DLRip.RGzsRutracker.[Wentworth_Miller].avi576.2 MB
De.Dag.S01E07.WEB-DLRip.RGzsRutracker.[Wentworth_Miller].avi666.3 MB
De.Dag.S01E08.WEB-DLRip.RGzsRutracker.[Wentworth_Miller].avi583.6 MB
De.Dag.S01E09.WEB-DLRip.RGzsRutracker.[Wentworth_Miller].avi672.8 MB
De.Dag.S01E10.WEB-DLRip.RGzsRutracker.[Wentworth_Miller].avi649.6 MB
De.Dag.S01E11.WEB-DLRip.RGzsRutracker.[Wentworth_Miller].avi522.4 MB
De.Dag.S01E12.WEB-DLRip.RGzsRutracker.[Wentworth_Miller].avi733.3 MB

Alternative Torrents for 'De Dag Season DLRip'.

TORRENT NAMEADDEDSIZESEEDSPEERSHEALTH
6/16/20207 GB20